Вы используете незарегистрированную версию компонента "Вкладки"!

Поиск

(Avant-Garde, Modern Creative, Modern Composition) Jean Derome - 3 Musiques Pour Ubu (2CD) - 1997, FLAC (tracks+.cue) lossless

Треклист:
Jean Derome / 3 Musiques Pour Ubu (2CD)
Жанр: Avant-Garde, Modern Creative, Modern Composition
Страна-производитель диска: Canada
Год издания диска: 1997
Издатель (лейбл): Ambiances Magnetiques
Номер по каталогу: AM030CD
Страна: Canada
Аудио кодек: FLAC (*.flac)
Тип рипа: tracks+.cue
Битрейт аудио: lossless
Продолжительность: 118:11
Источник (релизер): what.cd
Наличие сканов в содержимом раздачи: да
Треклист:
CD1:Cantate Grise (50:50)
1-1 Berceuse I (L'Avancee) 2:17
1-2 La Ronde Des Vieillards 2:13
1-3 Canon A Trois Trombones 1:37
1-4 Berceuse II (L'Innomable) 1:38
1-5 Cette Pauvre Vieille Pouilleuse De Vieille Terre 5:22
Flute [Baroque, Additional] - Allan Laforest
1-6 La Valse De Vi-Ru-Flo 2:26
1-7 Berceuse III 1:34
1-8 Due De Bassons 3:38
1-9 Fouillis (Quoi Ou) 2:50
1-10 Oscillation 4:42
1-11 Lueurs 4:03
Flute [Baroque, Additional] - Allan Laforest
1-12 Berceuse IV 1:50
1-13 Pavane 2:13
1-14 Cette Chambre 2:49
1-15 Petite Marche 0:56
1-16 Trio De Bassons 2:47
1-17 Spirale 4:01
Flute [Baroque, Additional] - Allan Laforest
1-18 Ainsi De Suite Et De Suite 1:01
1-19 Berceuse V 2:20
CD2: Les Ubs (33:44)
2-1 Les Trois Coups 0:35
2-2 Il Arrivel 0:19
2-3 Ouverture A La Francaise 1:13
2-4 Craignez Et Redoutez Le Maitre Des Phynances 2:32
2-5 La Crypte 1:53
2-6 Danse Villageoise 1:13
2-7 Le Bal 2:51
2-8 Le Menuet De Vanceslas 0:48
Flute [Additional] - Jean Derome
2-9 L'hymne Des Palotins 2:00
2-10 Le Menuet Du Czar 1:10
2-11 La Sarabande Des Rats 2:02
2-12 La Marche Des Polonais (Chanson De Route) 2:48
Voice [Solo] - Rene Lussier
2-13 Chanson Polonaise 2:29
Voice [Solo] - Rene Lussier
2-14 L'armee Russe 1:10
2-15 Marecages 0:46
2-16 La Trappe 2:13
2-17 Chansons Du Decervelage 4:48
2-18 Vers Les Rives De France 2:37
Luna-Park (33:36)
2-19 La Boite De Fer/Madame Lenin 4:54
2-20 Marche Funebre (Mondarbours I) 1:27
2-21 Odessa (Le Nuage En Pantalon I) 0:12
2-22 Ouverture De La Victoire Sur Le Soleil 2:49
La Victoire Sur Le Soleil, 1er Tableau
2-23 Le Moisi Des Naiades Dodues/La Sauterelle/Je Mange Un Chien/Vite Le Tempetometre 1:54
2-24 Celui-La (Nuage II) 0:17
2-25 Pilule, Pullule La Toupie/Domaine Tchekov/Mondarbours II 2:44
2-26 Maria (Nuage III) 0:19
2e Tableau
2-27 Que Les Chevaux Chauffes A Blanc Pietinent/Le Monde Des Fleurs N'est Deja Plus 2:12
2-28 La Mort Future 1:14
2-29 Le Boiteux 1:09
2-30 Sur Mon Visage... (Nuage IV)/Les Tenebres Ont Tout Envahi 1:17
2-31 Loulla/Mondarbours III 2:25
2-32 L'univers Dort (Nuage V) 0:28
3e Tableau
2-33 Le Berceau Du Navet Sanguinaire 1:57
2-34 Injuriant! (Nuage IV) 0:23
4e Tableau
2-35 Nous Sommes Libres Le Soleil Est Brise/Mondarbours IV 2:03
5e Tableau
2-36 Timidite De Se Tirer Une Balle/Le Volcan/L'horloge Geante Et Folle/Sur Les Vitres (Nuage VII) 1:56
6e Tableau Et Finale
2-37 Rengaine De Mauvais Gout/Chanson Des Sportifs 2:19
2-38 Mondarbours V 0:29
2-39 Le Monde Perira Mais Nous N'aurons Pas De Fin 1:07
 
Лог создания рипа

 
CD1
Exact Audio Copy V0.99 prebeta 4 from 23. January 2008
EAC extraction logfile from 2. November 2008, 11:57
Jean Derome / 3 Musiques pour UBU (disc 1 - Cantate grise)
Used drive : ASUS DRW-1814BL Adapter: 1 ID: 0
Read mode : Secure
Utilize accurate stream : Yes
Defeat audio cache : No
Make use of C2 pointers : No
Read offset correction : 6
Overread into Lead-In and Lead-Out : No
Fill up missing offset samples with silence : Yes
Delete leading and trailing silent blocks : No
Null samples used in CRC calculations : Yes
Used interface : Installed external ASPI interface
Gap handling : Appended to next track
Used output format : Internal WAV Routines
Sample format : 44.100 Hz; 16 Bit; Stereo
TOC of the extracted CD
Track | Start | Length | Start sector | End sector
---------------------------------------------------------
1 | 0:00.00 | 2:20.20 | 0 | 10519
2 | 2:20.20 | 2:14.35 | 10520 | 20604
3 | 4:34.55 | 1:39.35 | 20605 | 28064
4 | 6:14.15 | 1:39.62 | 28065 | 35551
5 | 7:54.02 | 5:24.40 | 35552 | 59891
6 | 13:18.42 | 2:28.13 | 59892 | 71004
7 | 15:46.55 | 1:35.15 | 71005 | 78144
8 | 17:21.70 | 3:39.12 | 78145 | 94581
9 | 21:01.07 | 2:52.40 | 94582 | 107521
10 | 23:53.47 | 4:42.25 | 107522 | 128696
11 | 28:35.72 | 4:06.15 | 128697 | 147161
12 | 32:42.12 | 1:52.10 | 147162 | 155571
13 | 34:34.22 | 2:13.20 | 155572 | 165566
14 | 36:47.42 | 2:50.20 | 165567 | 178336
15 | 39:37.62 | 0:57.15 | 178337 | 182626
16 | 40:35.02 | 2:49.30 | 182627 | 195331
17 | 43:24.32 | 4:03.18 | 195332 | 213574
18 | 47:27.50 | 1:03.62 | 213575 | 218361
19 | 48:31.37 | 2:22.28 | 218362 | 229039
Track 1
Filename E:\torr\Jean Derome - 3 musiques pour UBU\01. Jean Derome - Berceuse I (l'avancйe).wav
Pre-gap length 0:00:02.00
Peak level 19.8 %
Track quality 100.0 %
Copy CRC A641D173
Track not present in AccurateRip database
Copy OK
Track 2
Filename E:\torr\Jean Derome - 3 musiques pour UBU\02. Jean Derome - La ronde des vieillards.wav
Pre-gap length 0:00:01.48
Peak level 88.1 %
Track quality 100.0 %
Copy CRC 98A7C6C2
Track not present in AccurateRip database
Copy OK
Track 3
Filename E:\torr\Jean Derome - 3 musiques pour UBU\03. Jean Derome - Canon а trois trombones.wav
Pre-gap length 0:00:01.08
Peak level 66.5 %
Track quality 99.8 %
Copy CRC 3BBC4DA6
Track not present in AccurateRip database
Copy OK
Track 4
Filename E:\torr\Jean Derome - 3 musiques pour UBU\04. Jean Derome - Berceuse II (l'innomable).wav
Pre-gap length 0:00:01.48
Peak level 55.3 %
Track quality 100.0 %
Copy CRC D34268F2
Track not present in AccurateRip database
Copy OK
Track 5
Filename E:\torr\Jean Derome - 3 musiques pour UBU\05. Jean Derome - Cette pauvre vieille pouilleuse de vieille terre.wav
Pre-gap length 0:00:01.07
Peak level 100.0 %
Track quality 99.9 %
Copy CRC 301920E8
Track not present in AccurateRip database
Copy OK
Track 6
Filename E:\torr\Jean Derome - 3 musiques pour UBU\06. Jean Derome - La valse de Vi-Ru-Flo.wav
Pre-gap length 0:00:01.65
Peak level 55.6 %
Track quality 100.0 %
Copy CRC 9002632A
Track not present in AccurateRip database
Copy OK
Track 7
Filename E:\torr\Jean Derome - 3 musiques pour UBU\07. Jean Derome - Berceuse III.wav
Pre-gap length 0:00:01.18
Peak level 66.6 %
Track quality 100.0 %
Copy CRC 9B6488E8
Track not present in AccurateRip database
Copy OK
Track 8
Filename E:\torr\Jean Derome - 3 musiques pour UBU\08. Jean Derome - Duo de bassons.wav
Pre-gap length 0:00:00.48
Peak level 67.0 %
Track quality 100.0 %
Copy CRC 8D01A1C6
Track not present in AccurateRip database
Copy OK
Track 9
Filename E:\torr\Jean Derome - 3 musiques pour UBU\09. Jean Derome - Fouillis (quoi oщ).wav
Pre-gap length 0:00:00.27
Peak level 78.5 %
Track quality 99.9 %
Copy CRC 5ADE1389
Track not present in AccurateRip database
Copy OK
Track 10
Filename E:\torr\Jean Derome - 3 musiques pour UBU\10. Jean Derome - Oscillation.wav
Pre-gap length 0:00:01.65
Peak level 58.7 %
Track quality 100.0 %
Copy CRC 02E06957
Track not present in AccurateRip database
Copy OK
Track 11
Filename E:\torr\Jean Derome - 3 musiques pour UBU\11. Jean Derome - Lueurs.wav
Peak level 100.0 %
Track quality 100.0 %
Copy CRC 2F4A7071
Track not present in AccurateRip database
Copy OK
Track 12
Filename E:\torr\Jean Derome - 3 musiques pour UBU\12. Jean Derome - Berceuse IV.wav
Pre-gap length 0:00:02.15
Peak level 52.7 %
Track quality 100.0 %
Copy CRC A9BAAB7D
Track not present in AccurateRip database
Copy OK
Track 13
Filename E:\torr\Jean Derome - 3 musiques pour UBU\13. Jean Derome - Pavane.wav
Pre-gap length 0:00:01.37
Peak level 66.3 %
Track quality 100.0 %
Copy CRC 20914943
Track not present in AccurateRip database
Copy OK
Track 14
Filename E:\torr\Jean Derome - 3 musiques pour UBU\14. Jean Derome - Cette chambre.wav
Peak level 60.5 %
Track quality 100.0 %
Copy CRC 87904B70
Track not present in AccurateRip database
Copy OK
Track 15
Filename E:\torr\Jean Derome - 3 musiques pour UBU\15. Jean Derome - Petite marche.wav
Pre-gap length 0:00:00.22
Peak level 79.6 %
Track quality 100.0 %
Copy CRC 52A9283E
Track not present in AccurateRip database
Copy OK
Track 16
Filename E:\torr\Jean Derome - 3 musiques pour UBU\16. Jean Derome - Trio de bassons.wav
Pre-gap length 0:00:00.57
Peak level 77.8 %
Track quality 99.9 %
Copy CRC E5B4911E
Track not present in AccurateRip database
Copy OK
Track 17
Filename E:\torr\Jean Derome - 3 musiques pour UBU\17. Jean Derome - Spirale.wav
Pre-gap length 0:00:01.37
Peak level 77.0 %
Track quality 100.0 %
Copy CRC EDFDCE03
Track not present in AccurateRip database
Copy OK
Track 18
Filename E:\torr\Jean Derome - 3 musiques pour UBU\18. Jean Derome - Ainsi de suite et de suite.wav
Pre-gap length 0:00:01.10
Peak level 16.0 %
Track quality 100.0 %
Copy CRC 74E64047
Track not present in AccurateRip database
Copy OK
Track 19
Filename E:\torr\Jean Derome - 3 musiques pour UBU\19. Jean Derome - Berceuse V.wav
Pre-gap length 0:00:01.62
Peak level 38.6 %
Track quality 100.0 %
Copy CRC DDDF25B6
Track not present in AccurateRip database
Copy OK
None of the tracks are present in the AccurateRip database
No errors occurred
End of status report
 
CD2
Exact Audio Copy V0.99 prebeta 4 from 23. January 2008
EAC extraction logfile from 2. November 2008, 12:17
Jean Derome / 3 Musiques pour UBU (disc 2 - Les Ubs - Luna-Park)
Used drive : ASUS DRW-1814BL Adapter: 1 ID: 0
Read mode : Secure
Utilize accurate stream : Yes
Defeat audio cache : No
Make use of C2 pointers : No
Read offset correction : 6
Overread into Lead-In and Lead-Out : No
Fill up missing offset samples with silence : Yes
Delete leading and trailing silent blocks : No
Null samples used in CRC calculations : Yes
Used interface : Installed external ASPI interface
Gap handling : Appended to next track
Used output format : Internal WAV Routines
Sample format : 44.100 Hz; 16 Bit; Stereo
TOC of the extracted CD
Track | Start | Length | Start sector | End sector
---------------------------------------------------------
1 | 0:00.00 | 0:36.27 | 0 | 2726
2 | 0:36.27 | 0:19.40 | 2727 | 4191
3 | 0:55.67 | 1:13.40 | 4192 | 9706
4 | 2:09.32 | 2:32.40 | 9707 | 21146
5 | 4:41.72 | 1:53.15 | 21147 | 29636
6 | 6:35.12 | 1:13.65 | 29637 | 35176
7 | 7:49.02 | 2:51.65 | 35177 | 48066
8 | 10:40.67 | 0:48.08 | 48067 | 51674
9 | 11:29.00 | 2:00.05 | 51675 | 60679
10 | 13:29.05 | 1:10.72 | 60680 | 66001
11 | 14:40.02 | 2:02.18 | 66002 | 75169
12 | 16:42.20 | 2:48.50 | 75170 | 87819
13 | 19:30.70 | 2:29.25 | 87820 | 99019
14 | 22:00.20 | 1:10.50 | 99020 | 104319
15 | 23:10.70 | 0:46.22 | 104320 | 107791
16 | 23:57.17 | 2:13.35 | 107792 | 117801
17 | 26:10.52 | 4:48.38 | 117802 | 139439
18 | 30:59.15 | 2:43.22 | 139440 | 151686
19 | 33:42.37 | 4:49.10 | 151687 | 173371
20 | 38:31.47 | 1:27.35 | 173372 | 179931
21 | 39:59.07 | 0:12.65 | 179932 | 180896
22 | 40:11.72 | 2:49.03 | 180897 | 193574
23 | 43:01.00 | 1:54.67 | 193575 | 202191
24 | 44:55.67 | 0:17.15 | 202192 | 203481
25 | 45:13.07 | 2:44.65 | 203482 | 215846
26 | 47:57.72 | 0:19.20 | 215847 | 217291
27 | 48:17.17 | 2:12.58 | 217292 | 227249
28 | 50:30.00 | 1:14.20 | 227250 | 232819
29 | 51:44.20 | 1:09.60 | 232820 | 238054
30 | 52:54.05 | 1:17.12 | 238055 | 243841
31 | 54:11.17 | 2:25.33 | 243842 | 254749
32 | 56:36.50 | 0:28.02 | 254750 | 256851
33 | 57:04.52 | 1:57.68 | 256852 | 265694
34 | 59:02.45 | 0:23.47 | 265695 | 267466
35 | 59:26.17 | 2:03.53 | 267467 | 276744
36 | 61:29.70 | 1:56.20 | 276745 | 285464
37 | 63:26.15 | 2:19.20 | 285465 | 295909
38 | 65:45.35 | 0:29.12 | 295910 | 298096
39 | 66:14.47 | 1:03.33 | 298097 | 302854
Track 1
Filename E:\torr\Jean Derome - 3 musiques pour UBU\disc 2 Les Ubs\01. Jean Derome - Les trois coups.wav
Pre-gap length 0:00:02.00
Peak level 55.1 %
Track quality 100.0 %
Copy CRC D736B235
Track not present in AccurateRip database
Copy OK
Track 2
Filename E:\torr\Jean Derome - 3 musiques pour UBU\disc 2 Les Ubs\02. Jean Derome - Il arrive!.wav
Peak level 14.7 %
Track quality 100.0 %
Copy CRC DDF96C1E
Track not present in AccurateRip database
Copy OK
Track 3
Filename E:\torr\Jean Derome - 3 musiques pour UBU\disc 2 Les Ubs\03. Jean Derome - Ouverture а la franзaise.wav
Peak level 62.1 %
Track quality 100.0 %
Copy CRC 9A089B13
Track not present in AccurateRip database
Copy OK
Track 4
Filename E:\torr\Jean Derome - 3 musiques pour UBU\disc 2 Les Ubs\04. Jean Derome - Craignez et redoutez le ma[itre des Phynances.wav
Peak level 75.9 %
Track quality 100.0 %
Copy CRC 939FA5BE
Track not present in AccurateRip database
Copy OK
Track 5
Filename E:\torr\Jean Derome - 3 musiques pour UBU\disc 2 Les Ubs\05. Jean Derome - La crypte.wav
Peak level 23.3 %
Track quality 99.9 %
Copy CRC BBBB03D5
Track not present in AccurateRip database
Copy OK
Track 6
Filename E:\torr\Jean Derome - 3 musiques pour UBU\disc 2 Les Ubs\06. Jean Derome - Danse villageoise.wav
Peak level 60.7 %
Track quality 100.0 %
Copy CRC 795D265B
Track not present in AccurateRip database
Copy OK
Track 7
Filename E:\torr\Jean Derome - 3 musiques pour UBU\disc 2 Les Ubs\07. Jean Derome - Le bal.wav
Peak level 72.7 %
Track quality 100.0 %
Copy CRC 417FB9DF
Track not present in AccurateRip database
Copy OK
Track 8
Filename E:\torr\Jean Derome - 3 musiques pour UBU\disc 2 Les Ubs\08. Jean Derome - Le menuet de Vanceslas.wav
Peak level 35.8 %
Track quality 100.0 %
Copy CRC F82BA5A3
Track not present in AccurateRip database
Copy OK
Track 9
Filename E:\torr\Jean Derome - 3 musiques pour UBU\disc 2 Les Ubs\09. Jean Derome - L'hymne des Palotins.wav
Peak level 61.9 %
Track quality 100.0 %
Copy CRC 2168B044
Track not present in AccurateRip database
Copy OK
Track 10
Filename E:\torr\Jean Derome - 3 musiques pour UBU\disc 2 Les Ubs\10. Jean Derome - Le menuet du Czar.wav
Pre-gap length 0:00:00.01
Peak level 37.9 %
Track quality 100.0 %
Copy CRC 2A3203C8
Track not present in AccurateRip database
Copy OK
Track 11
Filename E:\torr\Jean Derome - 3 musiques pour UBU\disc 2 Les Ubs\11. Jean Derome - La sarabande des rats.wav
Peak level 73.1 %
Track quality 100.0 %
Copy CRC FD0299D6
Track not present in AccurateRip database
Copy OK
Track 12
Filename E:\torr\Jean Derome - 3 musiques pour UBU\disc 2 Les Ubs\12. Jean Derome - La marche des Polonais (chanson de route).wav
Peak level 92.4 %
Track quality 99.9 %
Copy CRC CD8C593E
Track not present in AccurateRip database
Copy OK
Track 13
Filename E:\torr\Jean Derome - 3 musiques pour UBU\disc 2 Les Ubs\13. Jean Derome - Chanson polonaise.wav
Peak level 59.2 %
Track quality 100.0 %
Copy CRC 2A6575AF
Track not present in AccurateRip database
Copy OK
Track 14
Filename E:\torr\Jean Derome - 3 musiques pour UBU\disc 2 Les Ubs\14. Jean Derome - L'armйe russe.wav
Peak level 68.1 %
Track quality 100.0 %
Copy CRC B3106111
Track not present in AccurateRip database
Copy OK
Track 15
Filename E:\torr\Jean Derome - 3 musiques pour UBU\disc 2 Les Ubs\15. Jean Derome - Marйcages.wav
Peak level 76.3 %
Track quality 100.0 %
Copy CRC 8C35A374
Track not present in AccurateRip database
Copy OK
Track 16
Filename E:\torr\Jean Derome - 3 musiques pour UBU\disc 2 Les Ubs\16. Jean Derome - La trappe.wav
Peak level 100.0 %
Track quality 99.9 %
Copy CRC AC7D21E3
Track not present in AccurateRip database
Copy OK
Track 17
Filename E:\torr\Jean Derome - 3 musiques pour UBU\disc 2 Les Ubs\17. Jean Derome - Chanson du dйcervelage.wav
Peak level 86.1 %
Track quality 100.0 %
Copy CRC 9F42E69D
Track not present in AccurateRip database
Copy OK
Track 18
Filename E:\torr\Jean Derome - 3 musiques pour UBU\disc 2 Les Ubs\18. Jean Derome - Vers les rives de France.wav
Peak level 76.8 %
Track quality 99.9 %
Copy CRC C8797C76
Track not present in AccurateRip database
Copy OK
Track 19
Filename E:\torr\Jean Derome - 3 musiques pour UBU\disc 2 Les Ubs\19. Jean Derome - La boоte de fer,Madame Lenin.wav
Pre-gap length 0:00:05.17
Peak level 57.2 %
Track quality 100.0 %
Copy CRC 4C521230
Track not present in AccurateRip database
Copy OK
Track 20
Filename E:\torr\Jean Derome - 3 musiques pour UBU\disc 2 Les Ubs\20. Jean Derome - Marche funиbre (Mondarbours I).wav
Peak level 44.9 %
Track quality 100.0 %
Copy CRC 61A065FB
Track not present in AccurateRip database
Copy OK
Track 21
Filename E:\torr\Jean Derome - 3 musiques pour UBU\disc 2 Les Ubs\21. Jean Derome - Odessa (Le nuage en Pantalon I).wav
Peak level 22.8 %
Track quality 100.0 %
Copy CRC 1E4A0A87
Track not present in AccurateRip database
Copy OK
Track 22
Filename E:\torr\Jean Derome - 3 musiques pour UBU\disc 2 Les Ubs\22. Jean Derome - Ouverture de la victoire sur le soleil.wav
Peak level 84.7 %
Track quality 100.0 %
Copy CRC 98197C22
Track not present in AccurateRip database
Copy OK
Track 23
Filename E:\torr\Jean Derome - 3 musiques pour UBU\disc 2 Les Ubs\23. Jean Derome - Le moisi des naпades dodues,La sauterelle,Je mange un chien,Vite le tempкtomкtre.wav
Peak level 74.7 %
Track quality 99.9 %
Copy CRC 9AD16C35
Track not present in AccurateRip database
Copy OK
Track 24
Filename E:\torr\Jean Derome - 3 musiques pour UBU\disc 2 Les Ubs\24. Jean Derome - Celui-lа (Nuage II).wav
Peak level 27.3 %
Track quality 100.0 %
Copy CRC DE10F694
Track not present in AccurateRip database
Copy OK
Track 25
Filename E:\torr\Jean Derome - 3 musiques pour UBU\disc 2 Les Ubs\25. Jean Derome - Pluie, pullule la toupie,Domaine Tchekov,Mondarbours II.wav
Peak level 67.7 %
Track quality 100.0 %
Copy CRC B15A5D2C
Track not present in AccurateRip database
Copy OK
Track 26
Filename E:\torr\Jean Derome - 3 musiques pour UBU\disc 2 Les Ubs\26. Jean Derome - Maria (Nuage III).wav
Peak level 26.5 %
Track quality 99.4 %
Copy CRC 17184F0D
Track not present in AccurateRip database
Copy OK
Track 27
Filename E:\torr\Jean Derome - 3 musiques pour UBU\disc 2 Les Ubs\27. Jean Derome - Que les chevaux chauffйs а blanc piйtinent,Le monde des fleurs n'est dйjа plus.wav
Peak level 62.5 %
Track quality 100.0 %
Copy CRC 9B07EC2E
Track not present in AccurateRip database
Copy OK
Track 28
Filename E:\torr\Jean Derome - 3 musiques pour UBU\disc 2 Les Ubs\28. Jean Derome - La mort future.wav
Peak level 27.9 %
Track quality 100.0 %
Copy CRC 3FEA2ED3
Track not present in AccurateRip database
Copy OK
Track 29
Filename E:\torr\Jean Derome - 3 musiques pour UBU\disc 2 Les Ubs\29. Jean Derome - Le boiteux.wav
Peak level 100.0 %
Track quality 100.0 %
Copy CRC 3BD44C62
Track not present in AccurateRip database
Copy OK
Track 30
Filename E:\torr\Jean Derome - 3 musiques pour UBU\disc 2 Les Ubs\30. Jean Derome - Sur mon visage... (Nuage IV),Les tйnиbres ont tout envahi.wav
Peak level 56.2 %
Track quality 100.0 %
Copy CRC 176B7ED7
Track not present in AccurateRip database
Copy OK
Track 31
Filename E:\torr\Jean Derome - 3 musiques pour UBU\disc 2 Les Ubs\31. Jean Derome - Loulla,Mandarbours III.wav
Peak level 73.9 %
Track quality 99.9 %
Copy CRC 5E31014B
Track not present in AccurateRip database
Copy OK
Track 32
Filename E:\torr\Jean Derome - 3 musiques pour UBU\disc 2 Les Ubs\32. Jean Derome - L'univers dort (Nuage V).wav
Peak level 20.7 %
Track quality 100.0 %
Copy CRC 5ED40056
Track not present in AccurateRip database
Copy OK
Track 33
Filename E:\torr\Jean Derome - 3 musiques pour UBU\disc 2 Les Ubs\33. Jean Derome - Le berceau du navet sanguinaire.wav
Peak level 47.7 %
Track quality 99.9 %
Copy CRC 9F43CDEB
Track not present in AccurateRip database
Copy OK
Track 34
Filename E:\torr\Jean Derome - 3 musiques pour UBU\disc 2 Les Ubs\34. Jean Derome - Injuriant (Nuage VI).wav
Peak level 33.5 %
Track quality 100.0 %
Copy CRC 717E1C80
Track not present in AccurateRip database
Copy OK
Track 35
Filename E:\torr\Jean Derome - 3 musiques pour UBU\disc 2 Les Ubs\35. Jean Derome - Nous sommes libres le soleil est brisй,Mandarbours IV.wav
Peak level 51.8 %
Track quality 100.0 %
Copy CRC 111EDF26
Track not present in AccurateRip database
Copy OK
Track 36
Filename E:\torr\Jean Derome - 3 musiques pour UBU\disc 2 Les Ubs\36. Jean Derome - Timiditй de se tirer une balle,Le volcan,L'horloge gйante et folle,Sur les vitres (Nuage VII).wav
Peak level 36.1 %
Track quality 100.0 %
Copy CRC D6A91E75
Track not present in AccurateRip database
Copy OK
Track 37
Filename E:\torr\Jean Derome - 3 musiques pour UBU\disc 2 Les Ubs\37. Jean Derome - Rengaine de mauvais goыt,Chanson des sportifs.wav
Peak level 41.3 %
Track quality 100.0 %
Copy CRC 55C7AA34
Track not present in AccurateRip database
Copy OK
Track 38
Filename E:\torr\Jean Derome - 3 musiques pour UBU\disc 2 Les Ubs\38. Jean Derome - Mandarbours V.wav
Peak level 8.2 %
Track quality 100.0 %
Copy CRC E528904C
Track not present in AccurateRip database
Copy OK
Track 39
Filename E:\torr\Jean Derome - 3 musiques pour UBU\disc 2 Les Ubs\39. Jean Derome - Le monde pйrira mais nous n'aurons pas de fin.wav
Peak level 51.5 %
Track quality 99.8 %
Copy CRC CC5FBF3A
Track not present in AccurateRip database
Copy OK
None of the tracks are present in the AccurateRip database
No errors occurred
End of status report
 
Содержание индексной карты (.CUE)

 
CD1
REM GENRE Jazz
REM DISCID 110BED13
REM COMMENT "ExactAudioCopy v0.99pb4"
FILE "01. Jean Derome - Berceuse I (l'avancйe).wav" WAVE
TRACK 01 AUDIO
FLAGS DCP
INDEX 01 00:00:00
FILE "02. Jean Derome - La ronde des vieillards.wav" WAVE
TRACK 02 AUDIO
FLAGS DCP
INDEX 00 00:00:00
INDEX 01 00:01:48
FILE "03. Jean Derome - Canon а trois trombones.wav" WAVE
TRACK 03 AUDIO
FLAGS DCP
INDEX 00 00:00:00
INDEX 01 00:01:08
FILE "04. Jean Derome - Berceuse II (l'innomable).wav" WAVE
TRACK 04 AUDIO
FLAGS DCP
INDEX 00 00:00:00
INDEX 01 00:01:48
FILE "05. Jean Derome - Cette pauvre vieille pouilleuse de vieille terre.wav" WAVE
TRACK 05 AUDIO
FLAGS DCP
INDEX 00 00:00:00
INDEX 01 00:01:07
FILE "06. Jean Derome - La valse de Vi-Ru-Flo.wav" WAVE
TRACK 06 AUDIO
FLAGS DCP
INDEX 00 00:00:00
INDEX 01 00:01:65
FILE "07. Jean Derome - Berceuse III.wav" WAVE
TRACK 07 AUDIO
FLAGS DCP
INDEX 00 00:00:00
INDEX 01 00:01:18
FILE "08. Jean Derome - Duo de bassons.wav" WAVE
TRACK 08 AUDIO
FLAGS DCP
INDEX 00 00:00:00
INDEX 01 00:00:48
FILE "09. Jean Derome - Fouillis (quoi oщ).wav" WAVE
TRACK 09 AUDIO
FLAGS DCP
INDEX 00 00:00:00
INDEX 01 00:00:27
FILE "10. Jean Derome - Oscillation.wav" WAVE
TRACK 10 AUDIO
FLAGS DCP
INDEX 00 00:00:00
INDEX 01 00:01:65
FILE "11. Jean Derome - Lueurs.wav" WAVE
TRACK 11 AUDIO
FLAGS DCP
INDEX 01 00:00:00
FILE "12. Jean Derome - Berceuse IV.wav" WAVE
TRACK 12 AUDIO
FLAGS DCP
INDEX 00 00:00:00
INDEX 01 00:02:15
FILE "13. Jean Derome - Pavane.wav" WAVE
TRACK 13 AUDIO
FLAGS DCP
INDEX 00 00:00:00
INDEX 01 00:01:37
FILE "14. Jean Derome - Cette chambre.wav" WAVE
TRACK 14 AUDIO
FLAGS DCP
INDEX 01 00:00:00
FILE "15. Jean Derome - Petite marche.wav" WAVE
TRACK 15 AUDIO
FLAGS DCP
INDEX 00 00:00:00
INDEX 01 00:00:22
FILE "16. Jean Derome - Trio de bassons.wav" WAVE
TRACK 16 AUDIO
FLAGS DCP
INDEX 00 00:00:00
INDEX 01 00:00:57
FILE "17. Jean Derome - Spirale.wav" WAVE
TRACK 17 AUDIO
FLAGS DCP
INDEX 00 00:00:00
INDEX 01 00:01:37
FILE "18. Jean Derome - Ainsi de suite et de suite.wav" WAVE
TRACK 18 AUDIO
FLAGS DCP
INDEX 00 00:00:00
INDEX 01 00:01:10
FILE "19. Jean Derome - Berceuse V.wav" WAVE
TRACK 19 AUDIO
FLAGS DCP
INDEX 00 00:00:00
INDEX 01 00:01:62
 
CD2
REM GENRE Jazz
REM DISCID 3E0FC627
REM COMMENT "ExactAudioCopy v0.99pb4"
FILE "01. Jean Derome - Les trois coups.wav" WAVE
TRACK 01 AUDIO
FLAGS DCP
INDEX 01 00:00:00
FILE "02. Jean Derome - Il arrive!.wav" WAVE
TRACK 02 AUDIO
FLAGS DCP
INDEX 01 00:00:00
FILE "03. Jean Derome - Ouverture а la franзaise.wav" WAVE
TRACK 03 AUDIO
FLAGS DCP
INDEX 01 00:00:00
FILE "04. Jean Derome - Craignez et redoutez le ma[itre des Phynances.wav" WAVE
TRACK 04 AUDIO
FLAGS DCP
INDEX 01 00:00:00
FILE "05. Jean Derome - La crypte.wav" WAVE
TRACK 05 AUDIO
FLAGS DCP
INDEX 01 00:00:00
FILE "06. Jean Derome - Danse villageoise.wav" WAVE
TRACK 06 AUDIO
FLAGS DCP
INDEX 01 00:00:00
FILE "07. Jean Derome - Le bal.wav" WAVE
TRACK 07 AUDIO
FLAGS DCP
INDEX 01 00:00:00
FILE "08. Jean Derome - Le menuet de Vanceslas.wav" WAVE
TRACK 08 AUDIO
FLAGS DCP
INDEX 01 00:00:00
FILE "09. Jean Derome - L'hymne des Palotins.wav" WAVE
TRACK 09 AUDIO
FLAGS DCP
INDEX 01 00:00:00
FILE "10. Jean Derome - Le menuet du Czar.wav" WAVE
TRACK 10 AUDIO
FLAGS DCP
INDEX 00 00:00:00
INDEX 01 00:00:01
FILE "11. Jean Derome - La sarabande des rats.wav" WAVE
TRACK 11 AUDIO
FLAGS DCP
INDEX 01 00:00:00
FILE "12. Jean Derome - La marche des Polonais (chanson de route).wav" WAVE
TRACK 12 AUDIO
FLAGS DCP
INDEX 01 00:00:00
FILE "13. Jean Derome - Chanson polonaise.wav" WAVE
TRACK 13 AUDIO
FLAGS DCP
INDEX 01 00:00:00
FILE "14. Jean Derome - L'armйe russe.wav" WAVE
TRACK 14 AUDIO
FLAGS DCP
INDEX 01 00:00:00
FILE "15. Jean Derome - Marйcages.wav" WAVE
TRACK 15 AUDIO
FLAGS DCP
INDEX 01 00:00:00
FILE "16. Jean Derome - La trappe.wav" WAVE
TRACK 16 AUDIO
FLAGS DCP
INDEX 01 00:00:00
FILE "17. Jean Derome - Chanson du dйcervelage.wav" WAVE
TRACK 17 AUDIO
FLAGS DCP
INDEX 01 00:00:00
FILE "18. Jean Derome - Vers les rives de France.wav" WAVE
TRACK 18 AUDIO
FLAGS DCP
INDEX 01 00:00:00
FILE "19. Jean Derome - La boоte de fer,Madame Lenin.wav" WAVE
TRACK 19 AUDIO
FLAGS DCP
INDEX 00 00:00:00
INDEX 01 00:05:17
FILE "20. Jean Derome - Marche funиbre (Mondarbours I).wav" WAVE
TRACK 20 AUDIO
FLAGS DCP
INDEX 01 00:00:00
FILE "21. Jean Derome - Odessa (Le nuage en Pantalon I).wav" WAVE
TRACK 21 AUDIO
FLAGS DCP
INDEX 01 00:00:00
FILE "22. Jean Derome - Ouverture de la victoire sur le soleil.wav" WAVE
TRACK 22 AUDIO
FLAGS DCP
INDEX 01 00:00:00
FILE "23. Jean Derome - Le moisi des naпades dodues,La sauterelle,Je mange un chien,Vite le tempкtomкtre.wav" WAVE
TRACK 23 AUDIO
FLAGS DCP
INDEX 01 00:00:00
FILE "24. Jean Derome - Celui-lа (Nuage II).wav" WAVE
TRACK 24 AUDIO
FLAGS DCP
INDEX 01 00:00:00
FILE "25. Jean Derome - Pluie, pullule la toupie,Domaine Tchekov,Mondarbours II.wav" WAVE
TRACK 25 AUDIO
FLAGS DCP
INDEX 01 00:00:00
FILE "26. Jean Derome - Maria (Nuage III).wav" WAVE
TRACK 26 AUDIO
FLAGS DCP
INDEX 01 00:00:00
FILE "27. Jean Derome - Que les chevaux chauffйs а blanc piйtinent,Le monde des fleurs n'est dйjа plus.wav" WAVE
TRACK 27 AUDIO
FLAGS DCP
INDEX 01 00:00:00
FILE "28. Jean Derome - La mort future.wav" WAVE
TRACK 28 AUDIO
FLAGS DCP
INDEX 01 00:00:00
FILE "29. Jean Derome - Le boiteux.wav" WAVE
TRACK 29 AUDIO
FLAGS DCP
INDEX 01 00:00:00
FILE "30. Jean Derome - Sur mon visage... (Nuage IV),Les tйnиbres ont tout envahi.wav" WAVE
TRACK 30 AUDIO
FLAGS DCP
INDEX 01 00:00:00
FILE "31. Jean Derome - Loulla,Mandarbours III.wav" WAVE
TRACK 31 AUDIO
FLAGS DCP
INDEX 01 00:00:00
FILE "32. Jean Derome - L'univers dort (Nuage V).wav" WAVE
TRACK 32 AUDIO
FLAGS DCP
INDEX 01 00:00:00
FILE "33. Jean Derome - Le berceau du navet sanguinaire.wav" WAVE
TRACK 33 AUDIO
FLAGS DCP
INDEX 01 00:00:00
FILE "34. Jean Derome - Injuriant (Nuage VI).wav" WAVE
TRACK 34 AUDIO
FLAGS DCP
INDEX 01 00:00:00
FILE "35. Jean Derome - Nous sommes libres le soleil est brisй,Mandarbours IV.wav" WAVE
TRACK 35 AUDIO
FLAGS DCP
INDEX 01 00:00:00
FILE "36. Jean Derome - Timiditй de se tirer une balle,Le volcan,L'horloge gйante et folle,Sur les vitres (Nuage VII).wav" WAVE
TRACK 36 AUDIO
FLAGS DCP
INDEX 01 00:00:00
FILE "37. Jean Derome - Rengaine de mauvais goыt,Chanson des sportifs.wav" WAVE
TRACK 37 AUDIO
FLAGS DCP
INDEX 01 00:00:00
FILE "38. Jean Derome - Mandarbours V.wav" WAVE
TRACK 38 AUDIO
FLAGS DCP
INDEX 01 00:00:00
FILE "39. Jean Derome - Le monde pйrira mais nous n'aurons pas de fin.wav" WAVE
TRACK 39 AUDIO
FLAGS DCP
INDEX 01 00:00:00
 
Лог проверки качества
d:\>d:\aucdtect -d/-m0 d:\zzz\*.wav
auCDtect: CD records authenticity detector, version 0.8.2
Copyright (c) 2004 Oleg Berngardt. All rights reserved.
Copyright (c) 2004 Alexander Djourik. All rights reserved.
------------------------------------------------------------
Processing file: [01. Berceuse I (l'avanc©e).wav]
------------------------------------------------------------
This track looks like CDDA with probability 100%
------------------------------------------------------------
Processing file: [01. Les trois coups.wav]
------------------------------------------------------------
This track looks like CDDA with probability 100%
------------------------------------------------------------
Processing file: [02. Il arrive!.wav]
------------------------------------------------------------
This track looks like CDDA with probability 100%
------------------------------------------------------------
Processing file: [02. La ronde des vieillards.wav]
------------------------------------------------------------
This track looks like CDDA with probability 99%
------------------------------------------------------------
Processing file: [03. Canon trois trombones.wav]
------------------------------------------------------------
This track looks like CDDA with probability 100%
------------------------------------------------------------
Processing file: [03. Ouverture la fran§aise.wav]
------------------------------------------------------------
This track looks like CDDA with probability 100%
------------------------------------------------------------
Processing file: [04. Berceuse II (l'innomable).wav]
------------------------------------------------------------
This track looks like CDDA with probability 62%
------------------------------------------------------------
Processing file: [04. Craignez et redoutez le ma[itre des Phynances.wav]
------------------------------------------------------------
This track looks like CDDA with probability 100%
------------------------------------------------------------
Processing file: [05. Cette pauvre vieille pouilleuse de vieille terre.wav]
------------------------------------------------------------
This track looks like CDDA with probability 100%
------------------------------------------------------------
Processing file: [05. La crypte.wav]
------------------------------------------------------------
This track looks like CDDA with probability 100%
------------------------------------------------------------
Processing file: [06. Danse villageoise.wav]
------------------------------------------------------------
This track looks like CDDA with probability 100%
------------------------------------------------------------
Processing file: [06. La valse de Vi-Ru-Flo.wav]
------------------------------------------------------------
This track looks like CDDA with probability 100%
------------------------------------------------------------
Processing file: [07. Berceuse III.wav]
------------------------------------------------------------
This track looks like CDDA with probability 100%
------------------------------------------------------------
Processing file: [07. Le bal.wav]
------------------------------------------------------------
This track looks like CDDA with probability 99%
------------------------------------------------------------
Processing file: [08. Duo de bassons.wav]
------------------------------------------------------------
This track looks like CDDA with probability 100%
------------------------------------------------------------
Processing file: [08. Le menuet de Vanceslas.wav]
------------------------------------------------------------
This track looks like CDDA with probability 100%
------------------------------------------------------------
Processing file: [09. Fouillis (quoi oй).wav]
------------------------------------------------------------
This track looks like CDDA with probability 100%
------------------------------------------------------------
Processing file: [09. L'hymne des Palotins.wav]
------------------------------------------------------------
This track looks like CDDA with probability 100%
------------------------------------------------------------
Processing file: [10. Le menuet du Czar.wav]
------------------------------------------------------------
This track looks like CDDA with probability 100%
------------------------------------------------------------
Processing file: [10. Oscillation.wav]
------------------------------------------------------------
This track looks like CDDA with probability 100%
------------------------------------------------------------
Processing file: [11. La sarabande des rats.wav]
------------------------------------------------------------
This track looks like CDDA with probability 100%
------------------------------------------------------------
Processing file: [11. Lueurs.wav]
------------------------------------------------------------
This track looks like CDDA with probability 100%
------------------------------------------------------------
Processing file: [12. Berceuse IV.wav]
------------------------------------------------------------
This track looks like CDDA with probability 100%
------------------------------------------------------------
Processing file: [12. La marche des Polonais (chanson de route).wav]
------------------------------------------------------------
This track looks like CDDA with probability 100%
------------------------------------------------------------
Processing file: [13. Chanson polonaise.wav]
------------------------------------------------------------
This track looks like CDDA with probability 100%
------------------------------------------------------------
Processing file: [13. Pavane.wav]
------------------------------------------------------------
This track looks like CDDA with probability 100%
------------------------------------------------------------
Processing file: [14. Cette chambre.wav]
------------------------------------------------------------
This track looks like CDDA with probability 100%
------------------------------------------------------------
Processing file: [14. L'arm©e russe.wav]
------------------------------------------------------------
This track looks like CDDA with probability 100%
------------------------------------------------------------
Processing file: [15. Mar©cages.wav]
------------------------------------------------------------
This track looks like CDDA with probability 100%
------------------------------------------------------------
Processing file: [15. Petite marche.wav]
------------------------------------------------------------
This track looks like CDDA with probability 100%
------------------------------------------------------------
Processing file: [16. La trappe.wav]
------------------------------------------------------------
This track looks like CDDA with probability 100%
------------------------------------------------------------
Processing file: [16. Trio de bassons.wav]
------------------------------------------------------------
This track looks like CDDA with probability 100%
------------------------------------------------------------
Processing file: [17. Chanson du d©cervelage.wav]
------------------------------------------------------------
This track looks like CDDA with probability 100%
------------------------------------------------------------
Processing file: [17. Spirale.wav]
------------------------------------------------------------
This track looks like CDDA with probability 100%
------------------------------------------------------------
Processing file: [18. Ainsi de suite et de suite.wav]
------------------------------------------------------------
This track looks like CDDA with probability 100%
------------------------------------------------------------
Processing file: [18. Vers les rives de France.wav]
------------------------------------------------------------
This track looks like CDDA with probability 100%
------------------------------------------------------------
Processing file: [19. Berceuse V.wav]
------------------------------------------------------------
This track looks like CDDA with probability 100%
------------------------------------------------------------
Processing file: [19. La bo®te de fer,Madame Lenin.wav]
------------------------------------------------------------
This track looks like CDDA with probability 100%
------------------------------------------------------------
Processing file: [20. Marche funЁbre (Mondarbours I).wav]
------------------------------------------------------------
This track looks like CDDA with probability 100%
------------------------------------------------------------
Processing file: [21. Odessa (Le nuage en Pantalon I).wav]
------------------------------------------------------------
This track looks like CDDA with probability 100%
------------------------------------------------------------
Processing file: [22. Ouverture de la victoire sur le soleil.wav]
------------------------------------------------------------
This track looks like CDDA with probability 100%
------------------------------------------------------------
Processing file: [23. Le moisi des naЇades dodues,La sauterelle,Je mange un chien,Vite le tempЄtomЄtre.wav]
------------------------------------------------------------
This track looks like CDDA with probability 100%
------------------------------------------------------------
Processing file: [24. Celui-l (Nuage II).wav]
------------------------------------------------------------
This track looks like CDDA with probability 100%
------------------------------------------------------------
Processing file: [25. Pluie, pullule la toupie,Domaine Tchekov,Mondarbours II.wav]
------------------------------------------------------------
This track looks like CDDA with probability 100%
------------------------------------------------------------
Processing file: [26. Maria (Nuage III).wav]
------------------------------------------------------------
This track looks like CDDA with probability 100%
------------------------------------------------------------
Processing file: [27. Que les chevaux chauff©s blanc pi©tinent,Le monde des fleurs n'est d©j plus.wav]
------------------------------------------------------------
This track looks like CDDA with probability 100%
------------------------------------------------------------
Processing file: [28. La mort future.wav]
------------------------------------------------------------
This track looks like CDDA with probability 62%
------------------------------------------------------------
Processing file: [29. Le boiteux.wav]
------------------------------------------------------------
This track looks like CDDA with probability 100%
------------------------------------------------------------
Processing file: [30. Sur mon visage... (Nuage IV),Les t©nЁbres ont tout envahi.wav]
------------------------------------------------------------
This track looks like CDDA with probability 100%
------------------------------------------------------------
Processing file: [31. Loulla,Mandarbours III.wav]
------------------------------------------------------------
This track looks like CDDA with probability 100%
------------------------------------------------------------
Processing file: [32. L'univers dort (Nuage V).wav]
------------------------------------------------------------
This track looks like CDDA with probability 100%
------------------------------------------------------------
Processing file: [33. Le berceau du navet sanguinaire.wav]
------------------------------------------------------------
This track looks like CDDA with probability 100%
------------------------------------------------------------
Processing file: [34. Injuriant (Nuage VI).wav]
------------------------------------------------------------
This track looks like CDDA with probability 100%
------------------------------------------------------------
Processing file: [35. Nous sommes libres le soleil est bris©,Mandarbours IV.wav]
------------------------------------------------------------
This track looks like CDDA with probability 99%
------------------------------------------------------------
Processing file: [36. Timidit© de se tirer une balle,Le volcan,L'horloge g©ante et folle,Sur les vitres (Nuage VII).wav]
------------------------------------------------------------
This track looks like CDDA with probability 100%
------------------------------------------------------------
Processing file: [37. Rengaine de mauvais goлt,Chanson des sportifs.wav]
------------------------------------------------------------
This track looks like CDDA with probability 100%
------------------------------------------------------------
Processing file: [38. Mandarbours V.wav]
------------------------------------------------------------
This track looks like CDDA with probability 100%
------------------------------------------------------------
Processing file: [39. Le monde p©rira mais nous n'aurons pas de fin.wav]
------------------------------------------------------------
This track looks like CDDA with probability 100%
------------------------------------------------------------
Final Conclusion:
------------------------------------------------------------
These tracks looks like CDDA with probability 100%
 
Скриншот спектра частот
 
Состав
Alto Saxophone, Baritone Saxophone, Flute, Percussion, Synthesizer, Performer [Patentes], Voice - Jean Derome (tracks: 2-19 to 2-39)
Bassoon - Shannon Peet (tracks: 1-1 to 1-19)
Choir [Des Comediens Et Musiciens] - Alexis Martin (tracks: 2-1 to 2-18) , Allan Laforest (tracks: 2-1 to 2-18) , Carl Bechard (tracks: 2-1 to 2-18) , Daniele Panneton (tracks: 2-1 to 2-18) , Gary Boudreault (tracks: 2-1 to 2-18) , Jean Derome (tracks: 2-1 to 2-18) , Jean-Francois Casabonne (tracks: 2-1 to 2-18) , Pierre Lebeau (tracks: 2-1 to 2-18) , Rene Lussier (tracks: 2-1 to 2-18) , Stephane Jalbert (tracks: 2-1 to 2-18)
Chorus - Alfred Lagrenade (tracks: 2-19 to 2-39) , Allan Laforest (tracks: 2-19 to 2-39) , Jean Derome (tracks: 2-19 to 2-39) , Michel Leonard (tracks: 2-19 to 2-39) , Pierre Cartier (tracks: 2-19 to 2-39)
Clarinet - Stephane Jalbert (tracks: 2-1 to 2-18)
Clarinet, Tenor Saxophone - Jean-Denis Levasseur (tracks: 2-1 to 2-18)
Clarinet, Voice - Jean-Denis Levasseur (tracks: 2-19 to 2-39)
Edited By - Jean Derome , Robert Langlois
Flute, Directed By - Allan Laforest (tracks: 2-1 to 2-18)
Flute, Flute [Baroque] - Allan Laforest (tracks: 2-19 to 2-39)
Flute, Soprano Saxophone, Harmonica, Synthesizer, Percussion, Jew's Harp [Guimbardes] - Jean Derome (tracks: 1-1 to 1-19)
Guitar [Tabletop], Idiophone [Daxophone], Kazoo, Performer [Autres Patentes], Voice - Rene Lussier (tracks: 2-19 to 2-39)
Mixed By - Jean Derome (tracks: 1-1 to 1-19, 2-1 to 2-18) , Robert Langlois (tracks: 1-1 to 1-19, 2-1 to 2-18)
Percussion - Carol Bergeron (tracks: 2-1 to 2-18)
Performer [Encore D'autres Patentes], Voice - Pierre Tanguay (tracks: 2-19 to 2-39)
Recorded By - Jean Derome (tracks: 2-19 to 2-39) , Robert Langlois
Recorded By [Chorus] - Pierre Bertrand (tracks: 2-19 to 2-39)
Sousaphone - Jean Sabourin (tracks: 2-1 to 2-39)
Synthesizer - Pierre Olivier (tracks: 2-19 to 2-39)
Trumpet, Flugelhorn - Ivanhoe Jolicoeur (tracks: 2-1 to 2-18)
Violin - Allyson Lyne (tracks: 2-19 to 2-39)
Violin [Baroque, Modern], Performer [Sifflements] - Chantal Remillard (tracks: 1-1 to 1-19)
Voice - Bernard Meney (tracks: 1-1 to 1-19) , Carl Bechard (tracks: 1-1 to 1-19) , Daniele Panneton (tracks: 1-1 to 1-19) , Denis Marleau (tracks: 1-1 to 1-19) , Han Masson (tracks: 1-1 to 1-19) , Pascale Montpetit (tracks: 1-1 to 1-19) , Pierre Chagnon (2) (tracks: 1-1 to 1-19) , Pierre Lebeau (tracks: 1-1 to 1-19)
По всем вопросам пишите личное сообщение пользователю M0p94ok.
10:44
164
Нет комментариев. Ваш будет первым!