Вы используете незарегистрированную версию компонента "Вкладки"!

Поиск

(avant-garde) Matthew Shipp Duo With Joe Morris - Thesis 1997, FLAC (tracks+.cue), lossless

Треклист:

Matthew Shipp Duo With Joe Morris - Thesis 1997
Жанр: avant-garde
Год издания диска: 1997
Издатель (лейбл): hatOLOGY 506
Аудиокодек: FLAC (*.flac)
Тип рипа: tracks+.cue
Битрейт аудио: lossless
Продолжительность: 01`03
Источник (релизер): what.cd
Наличие сканов в содержимом раздачи: да
Треклист:
*01.- Thesis
*02.- Fable
*03.- Simple Relations
*04.- Particle 1
*05.- The Wand
*06.- Action And Reaction
*07.- Center Of
*08.- The Turnpike
*09.- Form Of "Y"
*10.- Broader Orders
*11.- Particle 2
*12.- The Middle Region
*13.- Our Journey
 
Лог создания рипа
Exact Audio Copy V0.99 prebeta 5 from 4. May 2009
EAC extraction logfile from 13. January 2011, 12:11
Matthew Shipp Duo With Joe Morris / Thesis
Used drive : HL-DT-STDVDRAM GSA-4167B Adapter: 0 ID: 0
Read mode : Secure
Utilize accurate stream : Yes
Defeat audio cache : Yes
Make use of C2 pointers : No
Read offset correction : 667
Overread into Lead-In and Lead-Out : No
Fill up missing offset samples with silence : Yes
Delete leading and trailing silent blocks : No
Null samples used in CRC calculations : Yes
Used interface : Installed external ASPI interface
Gap handling : Appended to previous track
Used output format : User Defined Encoder
Selected bitrate : 768 kBit/s
Quality : High
Add ID3 tag : No
Command line compressor : C:\Program Files\Exact Audio Copy\FLAC\FLAC.EXE
Additional command line options : -V -8 -T "artist=%a" -T "title=%t" -T "album=%g" -T "date=%y" -T "tracknumber=%n" -T "genre=%m" %s
TOC of the extracted CD
Track | Start | Length | Start sector | End sector
---------------------------------------------------------
1 | 0:00.00 | 4:08.37 | 0 | 18636
2 | 4:08.37 | 5:39.25 | 18637 | 44086
3 | 9:47.62 | 3:41.00 | 44087 | 60661
4 | 13:28.62 | 3:43.00 | 60662 | 77386
5 | 17:11.62 | 3:49.00 | 77387 | 94561
6 | 21:00.62 | 5:21.50 | 94562 | 118686
7 | 26:22.37 | 5:33.25 | 118687 | 143686
8 | 31:55.62 | 5:35.00 | 143687 | 168811
9 | 37:30.62 | 4:22.00 | 168812 | 188461
10 | 41:52.62 | 8:01.00 | 188462 | 224536
11 | 49:53.62 | 4:41.00 | 224537 | 245611
12 | 54:34.62 | 4:18.00 | 245612 | 264961
13 | 58:52.62 | 4:35.13 | 264962 | 285599
Track 1
Filename Q:\Rips\Matthew Shipp Duo With Joe Morris - Thesis\01 - Matthew Shipp Duo With Joe Morris - Thesis.wav
Pre-gap length 0:00:02.00
Peak level 84.3 %
Track quality 100.0 %
Test CRC F3E6E814
Copy CRC F3E6E814
Accurately ripped (confidence 1) [8A51A59D]
Copy OK
Track 2
Filename Q:\Rips\Matthew Shipp Duo With Joe Morris - Thesis\02 - Matthew Shipp Duo With Joe Morris - Fable.wav
Peak level 90.5 %
Track quality 100.0 %
Test CRC 7B4658EC
Copy CRC 7B4658EC
Accurately ripped (confidence 1) [66350694]
Copy OK
Track 3
Filename Q:\Rips\Matthew Shipp Duo With Joe Morris - Thesis\03 - Matthew Shipp Duo With Joe Morris - Simple Relations.wav
Pre-gap length 0:00:00.01
Peak level 90.1 %
Track quality 100.0 %
Test CRC FE1C09C8
Copy CRC FE1C09C8
Accurately ripped (confidence 1) [31D4466D]
Copy OK
Track 4
Filename Q:\Rips\Matthew Shipp Duo With Joe Morris - Thesis\04 - Matthew Shipp Duo With Joe Morris - Particle 1.wav
Peak level 37.5 %
Track quality 100.0 %
Test CRC EDB6EB16
Copy CRC EDB6EB16
Accurately ripped (confidence 1) [30E7994C]
Copy OK
Track 5
Filename Q:\Rips\Matthew Shipp Duo With Joe Morris - Thesis\05 - Matthew Shipp Duo With Joe Morris - The Wand.wav
Peak level 83.7 %
Track quality 100.0 %
Test CRC 6975CA69
Copy CRC 6975CA69
Accurately ripped (confidence 1) [08145EC4]
Copy OK
Track 6
Filename Q:\Rips\Matthew Shipp Duo With Joe Morris - Thesis\06 - Matthew Shipp Duo With Joe Morris - Action And Reaction.wav
Peak level 59.4 %
Track quality 100.0 %
Test CRC AC365BB5
Copy CRC AC365BB5
Accurately ripped (confidence 1) [C39B51F5]
Copy OK
Track 7
Filename Q:\Rips\Matthew Shipp Duo With Joe Morris - Thesis\07 - Matthew Shipp Duo With Joe Morris - Center Of.wav
Peak level 90.5 %
Track quality 100.0 %
Test CRC 936086A7
Copy CRC 936086A7
Accurately ripped (confidence 1) [E0A2947C]
Copy OK
Track 8
Filename Q:\Rips\Matthew Shipp Duo With Joe Morris - Thesis\08 - Matthew Shipp Duo With Joe Morris - The Turnpike.wav
Peak level 75.3 %
Track quality 100.0 %
Test CRC AFC339AB
Copy CRC AFC339AB
Accurately ripped (confidence 1) [ACF05216]
Copy OK
Track 9
Filename Q:\Rips\Matthew Shipp Duo With Joe Morris - Thesis\09 - Matthew Shipp Duo With Joe Morris - Form Of 'Y'.wav
Peak level 58.0 %
Track quality 99.9 %
Test CRC F16B058B
Copy CRC F16B058B
Accurately ripped (confidence 1) [7C2A0FDF]
Copy OK
Track 10
Filename Q:\Rips\Matthew Shipp Duo With Joe Morris - Thesis\10 - Matthew Shipp Duo With Joe Morris - Broader Orders.wav
Peak level 90.6 %
Track quality 100.0 %
Test CRC 6157E34E
Copy CRC 6157E34E
Accurately ripped (confidence 1) [B2C85400]
Copy OK
Track 11
Filename Q:\Rips\Matthew Shipp Duo With Joe Morris - Thesis\11 - Matthew Shipp Duo With Joe Morris - Particle 2.wav
Peak level 47.7 %
Track quality 100.0 %
Test CRC 0FB319A7
Copy CRC 0FB319A7
Accurately ripped (confidence 1) [BE329774]
Copy OK
Track 12
Filename Q:\Rips\Matthew Shipp Duo With Joe Morris - Thesis\12 - Matthew Shipp Duo With Joe Morris - The Middle Region.wav
Peak level 66.4 %
Track quality 99.9 %
Test CRC 6CBE688E
Copy CRC 6CBE688E
Accurately ripped (confidence 1) [7A1642F3]
Copy OK
Track 13
Filename Q:\Rips\Matthew Shipp Duo With Joe Morris - Thesis\13 - Matthew Shipp Duo With Joe Morris - Our Journey.wav
Peak level 91.1 %
Track quality 100.0 %
Test CRC D099096D
Copy CRC D099096D
Accurately ripped (confidence 1) [4E9EF575]
Copy OK
All tracks accurately ripped
No errors occurred
End of status report
 
Содержание индексной карты (.CUE)
REM GENRE Jazz
REM DATE 1997
REM DISCID AF0EE00D
REM COMMENT "ExactAudioCopy v0.99pb5"
PERFORMER "Matthew Shipp Duo With Joe Morris"
TITLE "Thesis"
FILE "01 - Matthew Shipp Duo With Joe Morris - Thesis.wav" WAVE
TRACK 01 AUDIO
TITLE "Thesis"
PERFORMER "Matthew Shipp Duo With Joe Morris"
INDEX 01 00:00:00
FILE "02 - Matthew Shipp Duo With Joe Morris - Fable.wav" WAVE
TRACK 02 AUDIO
TITLE "Fable"
PERFORMER "Matthew Shipp Duo With Joe Morris"
INDEX 01 00:00:00
TRACK 03 AUDIO
TITLE "Simple Relations"
PERFORMER "Matthew Shipp Duo With Joe Morris"
INDEX 00 05:39:24
FILE "03 - Matthew Shipp Duo With Joe Morris - Simple Relations.wav" WAVE
INDEX 01 00:00:00
FILE "04 - Matthew Shipp Duo With Joe Morris - Particle 1.wav" WAVE
TRACK 04 AUDIO
TITLE "Particle 1"
PERFORMER "Matthew Shipp Duo With Joe Morris"
INDEX 01 00:00:00
FILE "05 - Matthew Shipp Duo With Joe Morris - The Wand.wav" WAVE
TRACK 05 AUDIO
TITLE "The Wand"
PERFORMER "Matthew Shipp Duo With Joe Morris"
INDEX 01 00:00:00
FILE "06 - Matthew Shipp Duo With Joe Morris - Action And Reaction.wav" WAVE
TRACK 06 AUDIO
TITLE "Action And Reaction"
PERFORMER "Matthew Shipp Duo With Joe Morris"
INDEX 01 00:00:00
FILE "07 - Matthew Shipp Duo With Joe Morris - Center Of.wav" WAVE
TRACK 07 AUDIO
TITLE "Center Of"
PERFORMER "Matthew Shipp Duo With Joe Morris"
INDEX 01 00:00:00
FILE "08 - Matthew Shipp Duo With Joe Morris - The Turnpike.wav" WAVE
TRACK 08 AUDIO
TITLE "The Turnpike"
PERFORMER "Matthew Shipp Duo With Joe Morris"
INDEX 01 00:00:00
FILE "09 - Matthew Shipp Duo With Joe Morris - Form Of 'Y'.wav" WAVE
TRACK 09 AUDIO
TITLE "Form Of 'Y'"
PERFORMER "Matthew Shipp Duo With Joe Morris"
INDEX 01 00:00:00
FILE "10 - Matthew Shipp Duo With Joe Morris - Broader Orders.wav" WAVE
TRACK 10 AUDIO
TITLE "Broader Orders"
PERFORMER "Matthew Shipp Duo With Joe Morris"
INDEX 01 00:00:00
FILE "11 - Matthew Shipp Duo With Joe Morris - Particle 2.wav" WAVE
TRACK 11 AUDIO
TITLE "Particle 2"
PERFORMER "Matthew Shipp Duo With Joe Morris"
INDEX 01 00:00:00
FILE "12 - Matthew Shipp Duo With Joe Morris - The Middle Region.wav" WAVE
TRACK 12 AUDIO
TITLE "The Middle Region"
PERFORMER "Matthew Shipp Duo With Joe Morris"
INDEX 01 00:00:00
FILE "13 - Matthew Shipp Duo With Joe Morris - Our Journey.wav" WAVE
TRACK 13 AUDIO
TITLE "Our Journey"
PERFORMER "Matthew Shipp Duo With Joe Morris"
INDEX 01 00:00:00
другие релизы
По всем вопросам пишите личное сообщение пользователю M0p94ok.
19:15
179
Нет комментариев. Ваш будет первым!