Вы используете незарегистрированную версию компонента "Вкладки"!

Поиск

(avant-garde jazz/modern creative/ avant-prog) Jean Derome et les Dangereux Zhoms - Carnets de voyage - 1994, FLAC (image+.cue) lossless

(avant-garde jazz/modern creative/ avant-prog) Jean Derome et les Dangereux Zhoms - Carnets de voyage - 1994, FLAC (image+.cue) lossless
Треклист:
Jean Derome et les Dangereux Zhoms / Carnets de voyage
Жанр: avant-garde jazz/modern creative
Страна-производитель диска: Canada
Год издания диска: 1994
Издатель (лейбл): DAME
Номер по каталогу: AM032CD
Страна: Canada
Аудио кодек: FLAC (*.flac)
Тип рипа: image+.cue
Битрейт аудио: lossless
Продолжительность: 66:39
Источник (релизер): собственный рип
Наличие сканов в содержимом раздачи: да
Треклист:
1. En culottes courtes, on gele
2. Bruxelles
3. Lachez-moe
4. Blues du loup
5. Calypso
6. Sans fin
7. Abracadabra
8. Rock (infernal)
9. Singes
10. Zuripari
11. Last Call
 
Лог создания рипа
Exact Audio Copy V0.99 prebeta 5 from 4. May 2009
EAC extraction logfile from 27. January 2011, 21:10
Derome Jean / Dangereux Zhoms
Used drive : Optiarc DVD RW AD-7243S Adapter: 0 ID: 1
Read mode : Secure
Utilize accurate stream : Yes
Defeat audio cache : Yes
Make use of C2 pointers : No
Read offset correction : 48
Overread into Lead-In and Lead-Out : No
Fill up missing offset samples with silence : Yes
Delete leading and trailing silent blocks : No
Null samples used in CRC calculations : Yes
Used interface : Native Win32 interface for Win NT & 2000
Used output format : User Defined Encoder
Selected bitrate : 768 kBit/s
Quality : High
Add ID3 tag : No
Command line compressor : C:\Program Files\Exact Audio Copy\FLAC\FLAC.EXE
Additional command line options : -6 -V -T "ARTIST=%a" -T "TITLE=%t" -T "ALBUM=%g" -T "DATE=%y" -T "TRACKNUMBER=%n" -T "GENRE=%m" -T "COMMENT=%e" %s -o %d
TOC of the extracted CD
Track | Start | Length | Start sector | End sector
---------------------------------------------------------
1 | 0:00.00 | 7:47.25 | 0 | 35049
2 | 7:47.25 | 9:17.35 | 35050 | 76859
3 | 17:04.60 | 7:28.40 | 76860 | 110499
4 | 24:33.25 | 5:00.25 | 110500 | 133024
5 | 29:33.50 | 6:38.10 | 133025 | 162884
6 | 36:11.60 | 3:54.45 | 162885 | 180479
7 | 40:06.30 | 7:43.15 | 180480 | 215219
8 | 47:49.45 | 5:21.62 | 215220 | 239356
9 | 53:11.32 | 5:55.08 | 239357 | 265989
10 | 59:06.40 | 4:08.35 | 265990 | 284624
11 | 63:15.00 | 6:03.05 | 284625 | 311854
Range status and errors
Selected range
Filename C:\Documents and Settings\S\Мои документы\Torrent раздача\Derome Jean - Dangereux Zhoms.wav
Peak level 94.4 %
Range quality 100.0 %
Test CRC F5276832
Copy CRC F5276832
Copy OK
No errors occurred
AccurateRip summary
Track 1 not present in database
Track 2 not present in database
Track 3 not present in database
Track 4 not present in database
Track 5 not present in database
Track 6 not present in database
Track 7 not present in database
Track 8 not present in database
Track 9 not present in database
Track 10 not present in database
Track 11 not present in database
None of the tracks are present in the AccurateRip database
End of status report
 
Состав
Jean Derome - saxophones, flutes
Pierre Cartier - basse electrique
Guillaume Dosteler - piano, syntheseurs
Rene Lussier - guitare, saxophone
Pierre Tanguay - batterie
Tom Walsh - trombone
Другие раздачи
http://rutracker.org/forum/search.php?uid=17163016
Any questions -> support@pro-jazz.com. По всем вопросам пишите -> support@pro-jazz.com
07:57
138
Нет комментариев. Ваш будет первым!