Поиск

(Avant-garde Jazz, Tzadik) [CD] Sylvie Courvoisier Trio (Kenny Wollesen, Drew Gress) - Double Windsor - 2014, FLAC (tracks+.cue), lossless

(Avant-garde Jazz, Tzadik) [CD] Sylvie Courvoisier Trio (Kenny Wollesen, Drew Gress) - Double Windsor - 2014, FLAC (tracks+.cue), lossless
Треклист:
Sylvie Courvoisier Trio / Double Windsor
Жанр: Avant-garde Jazz
Носитель: CD
Страна-производитель диска (релиза): US
Год издания: 2014
Издатель (лейбл): Tzadik
Номер по каталогу: ‎ TZ 4002
Аудиокодек: FLAC (*.flac)
Тип рипа: tracks+.cue
Битрейт аудио: lossless
Продолжительность: 53:55
Источник (релизер): cd
Наличие сканов в содержимом раздачи: нет
Треклист:
1. Double Windsor 10:37
2. The Charlier Cut 5:11
3. Downward Dog 4:34
4. Pendulum 7:56
5. La Cigale 3:50
6. Inscordatura 6:38
7. Corto 4:21
8. October 08 3:41
9. To Flt To Steal 7:07
 
Лог создания рипа
Exact Audio Copy V1.0 beta 3 from 29. August 2011
EAC extraction logfile from 23. December 2014, 22:11
Sylvie Courvoisier Trio / Double Windsor
Used drive : ASUS DRW-24F1ST a Adapter: 0 ID: 0
Read mode : Secure
Utilize accurate stream : Yes
Defeat audio cache : Yes
Make use of C2 pointers : No
Read offset correction : 6
Overread into Lead-In and Lead-Out : No
Fill up missing offset samples with silence : Yes
Delete leading and trailing silent blocks : No
Null samples used in CRC calculations : Yes
Used interface : Native Win32 interface for Win NT & 2000
Gap handling : Appended to previous track
Used output format : User Defined Encoder
Selected bitrate : 320 kBit/s
Quality : High
Add ID3 tag : No
Command line compressor : D:\Programs\Exact Audio Copy\Flac\flac.exe
Additional command line options : -V -8 -T "Genre=%genre%" -T "Artist=%artist%" -T "Title=%title%" -T "Album=%albumtitle%" -T "Date=%year%" -T "Tracknumber=%tracknr%" -T "Comment=%comment%" %source%
TOC of the extracted CD
Track | Start | Length | Start sector | End sector
---------------------------------------------------------
1 | 0:00.00 | 10:37.10 | 0 | 47784
2 | 10:37.10 | 5:10.38 | 47785 | 71072
3 | 15:47.48 | 4:34.34 | 71073 | 91656
4 | 20:22.07 | 7:55.69 | 91657 | 127350
5 | 28:18.01 | 3:49.48 | 127351 | 144573
6 | 32:07.49 | 6:38.03 | 144574 | 174426
7 | 38:45.52 | 4:20.74 | 174427 | 194000
8 | 43:06.51 | 3:41.22 | 194001 | 210597
9 | 46:47.73 | 7:07.20 | 210598 | 242642
Track 1
Filename D:\EAC\01 Double Windsor.wav
Pre-gap length 0:00:02.00
Peak level 100.0 %
Extraction speed 1.9 X
Track quality 99.9 %
Test CRC 203277E7
Copy CRC 203277E7
Copy OK
Track 2
Filename D:\EAC\02 The Charlier Cut.wav
Peak level 98.2 %
Extraction speed 2.3 X
Track quality 100.0 %
Test CRC 03D3BA1E
Copy CRC 03D3BA1E
Copy OK
Track 3
Filename D:\EAC\03 Downward Dog.wav
Peak level 100.0 %
Extraction speed 2.4 X
Track quality 100.0 %
Test CRC EA3EF70C
Copy CRC EA3EF70C
Copy OK
Track 4
Filename D:\EAC\04 Pendulum.wav
Peak level 100.0 %
Extraction speed 2.8 X
Track quality 100.0 %
Test CRC 1D3B8B6D
Copy CRC 1D3B8B6D
Copy OK
Track 5
Filename D:\EAC\05 La Cigale.wav
Peak level 96.8 %
Extraction speed 2.8 X
Track quality 100.0 %
Test CRC 93022A8C
Copy CRC 93022A8C
Copy OK
Track 6
Filename D:\EAC\06 Inscordatura.wav
Peak level 99.7 %
Extraction speed 2.9 X
Track quality 99.9 %
Test CRC 049423BA
Copy CRC 049423BA
Copy OK
Track 7
Filename D:\EAC\07 Corto.wav
Peak level 100.0 %
Extraction speed 3.1 X
Track quality 100.0 %
Test CRC 167F432A
Copy CRC 167F432A
Copy OK
Track 8
Filename D:\EAC\08 October 08.wav
Peak level 96.9 %
Extraction speed 3.1 X
Track quality 100.0 %
Test CRC 25B66B7E
Copy CRC 25B66B7E
Copy OK
Track 9
Filename D:\EAC\09 To Fly To Steal.wav
Peak level 96.7 %
Extraction speed 3.3 X
Track quality 99.9 %
Test CRC 0683EFF0
Copy CRC 0683EFF0
Copy OK
No errors occurred
End of status report
==== Log checksum 19DE521A5F3DABF96B156FE317D44A3BF8ED826D08AA4AFE607C07D6A5F1DC86 ====
 
Содержание индексной карты (.CUE)
REM GENRE Jazz
REM DATE 2014
REM DISCID 880CA309
REM COMMENT "ExactAudioCopy v1.0b3"
PERFORMER "Sylvie Courvoisier Trio"
TITLE "Double Windsor"
FILE "01 Double Windsor.wav" WAVE
TRACK 01 AUDIO
TITLE "Double Windsor"
PERFORMER "Sylvie Courvoisier Trio"
FLAGS DCP
INDEX 01 00:00:00
FILE "02 The Charlier Cut.wav" WAVE
TRACK 02 AUDIO
TITLE "The Charlier Cut"
PERFORMER "Sylvie Courvoisier Trio"
FLAGS DCP
INDEX 01 00:00:00
FILE "03 Downward Dog.wav" WAVE
TRACK 03 AUDIO
TITLE "Downward Dog"
PERFORMER "Sylvie Courvoisier Trio"
FLAGS DCP
INDEX 01 00:00:00
FILE "04 Pendulum.wav" WAVE
TRACK 04 AUDIO
TITLE "Pendulum"
PERFORMER "Sylvie Courvoisier Trio"
FLAGS DCP
INDEX 01 00:00:00
FILE "05 La Cigale.wav" WAVE
TRACK 05 AUDIO
TITLE "La Cigale"
PERFORMER "Sylvie Courvoisier Trio"
FLAGS DCP
INDEX 01 00:00:00
FILE "06 Inscordatura.wav" WAVE
TRACK 06 AUDIO
TITLE "Inscordatura"
PERFORMER "Sylvie Courvoisier Trio"
FLAGS DCP
INDEX 01 00:00:00
FILE "07 Corto.wav" WAVE
TRACK 07 AUDIO
TITLE "Corto"
PERFORMER "Sylvie Courvoisier Trio"
FLAGS DCP
INDEX 01 00:00:00
FILE "08 October 08.wav" WAVE
TRACK 08 AUDIO
TITLE "October 08"
PERFORMER "Sylvie Courvoisier Trio"
FLAGS DCP
INDEX 01 00:00:00
FILE "09 To Fly To Steal.wav" WAVE
TRACK 09 AUDIO
TITLE "To Fly To Steal"
PERFORMER "Sylvie Courvoisier Trio"
FLAGS DCP
INDEX 01 00:00:00
Доп. информация: Recorded at Sear Sound in New York City, on January 6th, 2014,
 
Об альбоме (сборнике)
"Sylvie Courvoisier steps out with her long awaited first recording for piano trio! One of the most creative pianists in the downtown scene, and a long time collaborator of Mark Feldman, Ikue Mori and many others, Sylvie combines a brilliant technique with a wild imagination that straddles classical, jazz, improvisation and more. Featuring the dynamic rhythm section of Kenny Wollesen and Drew Gress, the music combines the best of improvisation and composition in the classic piano trio format. Three years in the making this is an essential project that highlights an exciting new musical world."-Tzadik
 
Состав
Bass – Drew Gress
Drums – Kenny Wollesen
Piano – Sylvie Courvoisier
По всем вопросам пишите личное сообщение пользователю M0p94ok.
07:39
191
Нет комментариев. Ваш будет первым!