Поиск

(Avant-Garde Jazz) The Don Pullen & George Adams Quartet - Breakthrough - 1986, APE (image+.cue), lossless

Треклист:
•The Don Pullen & George Adams Quartet - Breakthrough•
Жанр: Avant-Garde Jazz
Страна-производитель диска: USA
Год издания: 1986
Издатель (лейбл): Blue Note
Номер по каталогу: CDP 7 46314 2
Аудиокодек: APE (*.ape)
Тип рипа: image+.cue
Битрейт аудио: lossless
Продолжительность: 00:53:10
Источник (релизер): barin99
Наличие сканов в содержимом раздачи: да
Треклист:
01.Mr. Smoothie [06:07]
02.Just Foolin' Around [06:20]
03.Song From The Old Country [08:13]
04.We've Been Here All The Time [09:09]
05.A Time For Sobriety [09:43]
06.The Necessary Blues [13:35]
Personnel:
George Adams — ts
Don Pullen — p
Cameron Brown — b
Dannie Richmond — dr
 
Лог создания рипа
Exact Audio Copy V0.99 prebeta 5 from 4. May 2009
EAC extraction logfile from 27. April 2012, 20:11
George Adams Don Pullen Quartet / Breakthrough
Used drive : TSSTcorpDVD+-RW TS-U633A Adapter: 0 ID: 1
Read mode : Secure
Utilize accurate stream : Yes
Defeat audio cache : Yes
Make use of C2 pointers : No
Read offset correction : 6
Overread into Lead-In and Lead-Out : No
Fill up missing offset samples with silence : Yes
Delete leading and trailing silent blocks : No
Null samples used in CRC calculations : Yes
Used interface : Native Win32 interface for Win NT & 2000
Used output format : Internal WAV Routines
Sample format : 44.100 Hz; 16 Bit; Stereo
TOC of the extracted CD
Track | Start | Length | Start sector | End sector
---------------------------------------------------------
1 | 0:00.00 | 6:09.05 | 0 | 27679
2 | 6:09.05 | 6:20.10 | 27680 | 56189
3 | 12:29.15 | 8:14.52 | 56190 | 93291
4 | 20:43.67 | 9:09.55 | 93292 | 134521
5 | 29:53.47 | 9:44.60 | 134522 | 178381
6 | 39:38.32 | 13:35.20 | 178382 | 239526
Range status and errors
Selected range
Filename C:\_Arc\BARIN99\George Adams Don Pullen Quartet - Breakthrough\George Adams Don Pullen Quartet - Breakthrough.wav
Peak level 89.7 %
Range quality 100.0 %
Copy CRC 0B278FB4
Copy OK
No errors occurred
AccurateRip summary
Track 1 accurately ripped (confidence 7) [1F55FD3D]
Track 2 accurately ripped (confidence 7) [3BC75566]
Track 3 accurately ripped (confidence 7) [BD99E079]
Track 4 accurately ripped (confidence 7) [260B9492]
Track 5 accurately ripped (confidence 7) [3B1444D8]
Track 6 accurately ripped (confidence 7) [6E7E508D]
All tracks accurately ripped
End of status report
 
Содержание индексной карты (.CUE)
REM GENRE Jazz
REM DATE 1986
REM DISCID 490C7906
REM COMMENT "ExactAudioCopy v0.99pb5"
PERFORMER "George Adams Don Pullen Quartet"
TITLE "Breakthrough"
FILE "George Adams Don Pullen Quartet - Breakthrough.wav" WAVE
TRACK 01 AUDIO
TITLE "Mr. Smoothie"
PERFORMER "George Adams Don Pullen Quartet"
INDEX 01 00:00:00
TRACK 02 AUDIO
TITLE "Just Foolin' Around"
PERFORMER "George Adams Don Pullen Quartet"
INDEX 00 06:07:67
INDEX 01 06:09:05
TRACK 03 AUDIO
TITLE "Song From The Old Country"
PERFORMER "George Adams Don Pullen Quartet"
INDEX 01 12:29:15
TRACK 04 AUDIO
TITLE "We've Been Here All The Time"
PERFORMER "George Adams Don Pullen Quartet"
INDEX 00 20:42:32
INDEX 01 20:43:67
TRACK 05 AUDIO
TITLE "A Time For Sobriety"
PERFORMER "George Adams Don Pullen Quartet"
INDEX 01 29:53:47
TRACK 06 AUDIO
TITLE "The Necessary Blues"
PERFORMER "George Adams Don Pullen Quartet"
INDEX 00 39:37:32
INDEX 01 39:38:32
Download available for power users only.
23:53
424
Нет комментариев. Ваш будет первым!