Вы используете незарегистрированную версию компонента "Вкладки"!

Поиск

(Avant-Garde Jazz, Modern Composition) Harris Eisenstadt (w/ Brad Dutz, Ellen Burr, Bruce Fowler) - Fight Or Flight - 2002, FLAC (tracks+.cue), lossless

(Avant-Garde Jazz, Modern Composition) Harris Eisenstadt (w/ Brad Dutz, Ellen Burr, Bruce Fowler) - Fight Or Flight - 2002, FLAC (tracks+.cue), lossless
Треклист:
Harris Eisenstadt / Fight Or Flight
Жанр: Avant-Garde Jazz, Modern Composition
Страна-производитель диска: US
Год издания: 2002
Издатель (лейбл): Newsonic
Номер по каталогу: Newsonic 32
Страна: Canada
Аудиокодек: FLAC (*.flac)
Тип рипа: tracks+.cue
Битрейт аудио: lossless
Продолжительность: 42:46
Источник (релизер): свой фирменный диск
Наличие сканов в содержимом раздачи:
Треклист:
1. Rise 11:17
2. People Are Gonna Do What They're Gonna Do 13:57
3. Trouble Here, Fly There 17:45
 
Лог создания рипа
Exact Audio Copy V1.0 beta 3 from 29. August 2011
EAC extraction logfile from 16. November 2013, 23:15
Harris Eisenstadt / Fight Or Flight
Used drive : PIONEER DVD-RW DVR-115D Adapter: 0 ID: 0
Read mode : Secure
Utilize accurate stream : Yes
Defeat audio cache : Yes
Make use of C2 pointers : No
Read offset correction : 48
Overread into Lead-In and Lead-Out : No
Fill up missing offset samples with silence : Yes
Delete leading and trailing silent blocks : No
Null samples used in CRC calculations : Yes
Used interface : Installed external ASPI interface
Gap handling : Appended to previous track
Used output format : User Defined Encoder
Selected bitrate : 896 kBit/s
Quality : High
Add ID3 tag : No
Command line compressor : C:\Program Files\Exact Audio Copy\FLAC\FLAC.EXE
Additional command line options : -6 -V -T "ARTIST=%artist%" -T "TITLE=%title%" -T "ALBUM=%albumtitle%" -T "DATE=%year%" -T "TRACKNUMBER=%tracknr%" -T "GENRE=%genre%" -T "COMMENT=%comment%" -T "BAND=%albuminterpret%" -T "COMPOSER=%composer%" %haslyrics%--tag-from-file=LYRICS="%lyricsfile%"%haslyrics% -T "DISCNUMBER=%cdnumber%" -T "TOTALDISCS=%totalcds%" -T "TOTALTRACKS=%numtracks%" %hascover%--picture="%coverfile%"%hascover% %source% -o %dest%
TOC of the extracted CD
Track | Start | Length | Start sector | End sector
---------------------------------------------------------
1 | 0:00.00 | 11:13.58 | 0 | 50532
2 | 11:13.58 | 13:54.63 | 50533 | 113145
3 | 25:08.46 | 17:37.70 | 113146 | 192490
Track 1
Filename D:\zzz\01 - Rise.wav
Pre-gap length 0:00:02.00
Peak level 96.6 %
Extraction speed 5.1 X
Track quality 100.0 %
Test CRC 849A101A
Copy CRC 849A101A
Track not present in AccurateRip database
Copy OK
Track 2
Filename D:\zzz\02 - People Are Gonna Do What They're Gonna Do.wav
Pre-gap length 0:00:03.00
Peak level 96.6 %
Extraction speed 6.4 X
Track quality 100.0 %
Test CRC 9163FEDD
Copy CRC 9163FEDD
Track not present in AccurateRip database
Copy OK
Track 3
Filename D:\zzz\03 - Trouble Here, Fly There.wav
Pre-gap length 0:00:01.00
Peak level 96.6 %
Extraction speed 7.6 X
Track quality 100.0 %
Test CRC CF03A0E6
Copy CRC CF03A0E6
Track not present in AccurateRip database
Copy OK
None of the tracks are present in the AccurateRip database
No errors occurred
End of status report
==== Log checksum CEDC4F8AAD787459DB80AEECBB62C716A6A9C868EECDDA5A0465E6ACA110BD90 ====
 
Содержание индексной карты (.CUE)
REM GENRE Avant-Garde
REM DATE 2002
REM DISCID 1B0A0603
REM COMMENT "ExactAudioCopy v1.0b3"
PERFORMER "Harris Eisenstadt"
TITLE "Fight Or Flight"
FILE "01 - Rise.wav" WAVE
TRACK 01 AUDIO
TITLE "Rise"
PERFORMER "Harris Eisenstadt"
INDEX 01 00:00:00
TRACK 02 AUDIO
TITLE "People Are Gonna Do What They're Gonna Do"
PERFORMER "Harris Eisenstadt"
INDEX 00 11:10:58
FILE "02 - People Are Gonna Do What They're Gonna Do.wav" WAVE
INDEX 01 00:00:00
TRACK 03 AUDIO
TITLE "Trouble Here, Fly There"
PERFORMER "Harris Eisenstadt"
INDEX 00 13:53:63
FILE "03 - Trouble Here, Fly There.wav" WAVE
INDEX 01 00:00:00
 
Лог проверки качества
d:\>d:\aucdtect -d/-m0 d:\zzz\*.wav
auCDtect: CD records authenticity detector, version 0.8.2
Copyright (c) 2004 Oleg Berngardt. All rights reserved.
Copyright (c) 2004 Alexander Djourik. All rights reserved.
------------------------------------------------------------
Processing file: [01. Rise.wav]
------------------------------------------------------------
This track looks like CDDA with probability 99%
------------------------------------------------------------
Processing file: [02. People Are Gonna Do What They're Gonna Do.wav]
------------------------------------------------------------
This track looks like CDDA with probability 100%
------------------------------------------------------------
Processing file: [03. Trouble Here, Fly There.wav]
------------------------------------------------------------
This track looks like CDDA with probability 100%
------------------------------------------------------------
Final Conclusion:
------------------------------------------------------------
These tracks looks like CDDA with probability 100%
Доп. информация:
 
Album Info & AMG Review
Recorded at Apperson St. Studios, Tujunga CA, 1 June 02 Brad Dutz, engineer
Mixed at Groovetree Studios, Mar Vista CA, 15 June 02 Jason Lord, engineer
Mastered at Newzone Studio, Los Angeles CA, 16 July 02 Wayne Peet engineer
Liner notes: Gerry Hemingway, July 2002
Much thanks to the musicians involved with this project, my family, friends, and teachers, Sara, Adam Rudolph, Alex Cline, Gerry Hemingway, Brad, Kaoru, and Jasper Dutz for their hospitality, Jason Lord, Wayne Peet, Seth Misterka and Newsonic.
Time cannot be spurred on like a horse. But it is not so slow as a pushcart. - Kobo Abe, The Woman In The Dunes
There are many surprises to be found on Harris Eisenstadt's Fight or Flight. The first one consists of how discreet a role the drummer plays in his compositions. The second is found in Brad Dutz's elegant marimba playing -- despite a strong solo album in the late '90s (Heat the Grill Cook Loin, on Headless), this West Coast percussionist has remained cruelly underexposed and it's a pleasure to find him here. The third surprise is to find once Frank Zappa trombonist Bruce Fowler in the band. The album presents three pieces between 11 and 18 minutes in duration, all recorded on a single day of studio work. Eisenstadt's ensemble writing shares similarities with Vinny Golia's; he moves between styles elegantly and forcelessly, alternately hinting at chamber music, free improvisation, and groove-based jazz, all directions embedded within a coherent vision. The heptet features Ellen Burr on flute and David Philipson on bansuri flute, Fowler on trombone, Mark Weaver on tuba, Bill Casale on contrabass, and Dutz and Eisenstadt taking care of the percussives. The unusual instrumentation is put to good use, avoiding the culprit of "avant-garde march band" it could have led to. After a free-form opening, "Rise" gives way to an impressive performance from Dutz, lacing variations on an already defiant theme. "People Are Gonna Do What They're Gonna Do" showcases the two flutists, while "Trouble Here, Fly There" focuses on the bottom end, laying down a groove interrupted by bass and tuba solos. The whole thing has a clear West Coast new jazz feel: slick, cerebral, engaging, yet careful.
 
Состав
Ellen Burr: flute
Bill Casale: contrabass
Brad Dutz: marimba, vibraphone, crotales
Harris Eisenstadt: drumset, percussion
Bruce Fowler: trombone
David Philipson: bansuri flute
Mark Weaver: tuba
Any questions -> support@pro-jazz.com. По всем вопросам пишите -> support@pro-jazz.com
20:46
134
Нет комментариев. Ваш будет первым!