Вы используете незарегистрированную версию компонента "Вкладки"!

Поиск

(Avant-garde Jazz, Hard Bop) The Andrzej Trzaskowski Quintet - The Andrzej Trzaskowski Quintet {1965} - Polish Jazz Vol.4 - 2005, APE (image+.cue), lossless

(Avant-garde Jazz, Hard Bop) The Andrzej Trzaskowski Quintet - The Andrzej Trzaskowski Quintet {1965} - Polish Jazz Vol.4 - 2005, APE (image+.cue), lossless
Треклист:
The Andrzej Trzaskowski Quintet / The Andrzej Trzaskowski Quintet {1965} - Polish Jazz Vol.4
Жанр: Avant-garde Jazz, Hard Bop
Страна-производитель диска: Poland
Год издания: 2005
Издатель (лейбл): Polskie Nagrania
Номер по каталогу: XL 0258 / PRCD 535
Страна: Poland
Аудиокодек: APE (*.ape)
Тип рипа: image+.cue
Битрейт аудио: lossless
Продолжительность: 46:56
Источник (релизер): SurowyTato
Наличие сканов в содержимом раздачи: да
Треклист:
1. Requiem Dla Scotta La Faro / Requiem For Scotty [2:47]
2. Synopsis (Expression I, Expression II, Impression) [18:13]
3. Ballada Z Silverowska Kadencja / A Ballad With Cadence In Horace Silver's Style [1:43]
4. Sinobrody / Bluebeard [10:22]
5. Post Scriptum [2:44]
6. Wariacja Jazzowa Na Temat 'Chmiela' / 'The Hop' - Jazz Variation On A Polish Folk Melody [11:05]
 
Лог создания рипа
EAC extraction logfile from 8. June 2007, 22:36 for CD
The Andrzej Trzaskowski Quintet / The Andrzej Trzaskowski Quintet
Used drive : LITE-ON DVDRW SOHW-1213S Adapter: 1 ID: 1
Read mode : Secure with NO C2, accurate stream, disable cache
Read offset correction : 12
Overread into Lead-In and Lead-Out : No
Used output format : Internal WAV Routines
44.100 Hz; 16 Bit; Stereo
Other options :
Fill up missing offset samples with silence : Yes
Delete leading and trailing silent blocks : No
Installed external ASPI interface
Range status and errors
Selected range
Filename E:\INCOMING\EAC\The Andrzej Trzaskowski Quintet - The Andrzej Trzaskowski Quintet.wav
Peak level 97.7 %
Range quality 100.0 %
CRC 2CCC281F
Copy OK
No errors occured
End of status report
 
Содержание индексной карты (.CUE)
REM GENRE Jazz
REM DATE 1965
REM DISCID 4F0B0006
REM COMMENT "ExactAudioCopy v0.95b4"
PERFORMER "The Andrzej Trzaskowski Quintet"
TITLE "The Andrzej Trzaskowski Quintet"
FILE "The Andrzej Trzaskowski Quintet - The Andrzej Trzaskowski Quintet.ape" WAVE
TRACK 01 AUDIO
TITLE "Requiem Dla Scotta La Faro / Requiem For Scotty"
PERFORMER "The Andrzej Trzaskowski Quintet"
INDEX 01 00:00:00
TRACK 02 AUDIO
TITLE "Synopsis (Expression I, Expression II, Impression)"
PERFORMER "The Andrzej Trzaskowski Quintet"
INDEX 00 02:45:00
INDEX 01 02:47:00
TRACK 03 AUDIO
TITLE "Ballada Z Silverowska Kadencja / A Ballad With Cadence In Horace Silver's Style"
PERFORMER "The Andrzej Trzaskowski Quintet"
INDEX 00 20:58:09
INDEX 01 21:00:09
TRACK 04 AUDIO
TITLE "Sinobrody / Bluebeard"
PERFORMER "The Andrzej Trzaskowski Quintet"
INDEX 00 22:41:25
INDEX 01 22:43:25
TRACK 05 AUDIO
TITLE "Post Scriptum"
PERFORMER "The Andrzej Trzaskowski Quintet"
INDEX 00 33:03:68
INDEX 01 33:05:68
TRACK 06 AUDIO
TITLE "Wariacja Jazzowa Na Temat 'Chmiela' / 'The Hop' - Jazz Variation On A Polish ..."
PERFORMER "The Andrzej Trzaskowski Quintet"
INDEX 00 35:48:30
INDEX 01 35:50:30
 
Состав
Tomasz Stanko – trumpet
Janusz Muniak – soprano and alto sax
Andrzej Trzaskowski – piano
Jacek Ostaszewski – bass
Adam Jedrzejowski – drums
Any questions -> support@pro-jazz.com. По всем вопросам пишите -> support@pro-jazz.com
23:56
165
Нет комментариев. Ваш будет первым!