Вы используете незарегистрированную версию компонента "Вкладки"!

Поиск

(Avant-Garde Jazz, Free Improvisation) Mary Halvorson Trio (John Hébert, Ches Smith) - Ghost Loop - 2013, FLAC (tracks+.cue), lossless

(Avant-Garde Jazz, Free Improvisation) Mary Halvorson Trio (John Hébert, Ches Smith) - Ghost Loop - 2013, FLAC (tracks+.cue), lossless
Треклист:
Mary Halvorson TrioGhost Loop Жанр: Avant-Garde Jazz, Free Improvisation
Страна-производитель диска: US
Год издания: 2013
Издатель (лейбл): ForTune
Номер по каталогу: 010
Аудиокодек: FLAC (*.flac)
Тип рипа: tracks+.cue
Битрейт аудио: lossless
Продолжительность: 1:02:02
Источник (релизер): CD (спасибо kivius)
Наличие сканов в содержимом раздачи: нет
Треклист:
01. into the sea into me (no. 36) 8:16
02. the cadence of tears (no. 40) 6:51
03. crashes like lights (no. 39) 6:26
04. existential tearings (no. 44) 7:25
05. to the man who brought the flower (no. 45) 5:18
06. of colorful white finds (no. 38) 6:46
07. ghost loop (no. 43) 6:28
08. forgotten men in silver (no. 24) 7:48
09. deformed weight of hands (no. 28) 6:44
 
Лог создания рипа
Exact Audio Copy V1.0 beta 3 from 29. August 2011
EAC extraction logfile from 19. October 2013, 0:22
Mary Halvorson Trio / Ghost Loop
Used drive : TSSTcorpCDDVDW SE-208DB Adapter: 2 ID: 0
Read mode : Secure
Utilize accurate stream : Yes
Defeat audio cache : Yes
Make use of C2 pointers : No
Read offset correction : 6
Overread into Lead-In and Lead-Out : No
Fill up missing offset samples with silence : Yes
Delete leading and trailing silent blocks : No
Null samples used in CRC calculations : Yes
Used interface : Native Win32 interface for Win NT & 2000
Gap handling : Appended to previous track
Used output format : User Defined Encoder
Selected bitrate : 1024 kBit/s
Quality : High
Add ID3 tag : No
Command line compressor : C:\Program Files (x86)\Exact Audio Copy\FLAC\FLAC.EXE
Additional command line options : -8 -V -T "ARTIST=%artist%" -T "TITLE=%title%" -T "ALBUM=%albumtitle%" -T "DATE=%year%" -T "TRACKNUMBER=%tracknr%" -T "GENRE=%genre%" -T "PERFORMER=%albuminterpret%" -T "COMPOSER=%composer%" %haslyrics%--tag-from-file=LYRICS="%lyricsfile%"%haslyrics% -T "ALBUMARTIST=%albumartist%" -T "DISCNUMBER=%cdnumber%" -T "TOTALDISCS=%totalcds%" -T "TOTALTRACKS=%numtracks%" -T "COMMENT=%comment%" %source% -o %dest%
TOC of the extracted CD
Track | Start | Length | Start sector | End sector
---------------------------------------------------------
1 | 0:00.00 | 8:16.00 | 0 | 37199
2 | 8:16.00 | 6:51.00 | 37200 | 68024
3 | 15:07.00 | 6:26.00 | 68025 | 96974
4 | 21:33.00 | 7:25.00 | 96975 | 130349
5 | 28:58.00 | 5:18.00 | 130350 | 154199
6 | 34:16.00 | 6:46.00 | 154200 | 184649
7 | 41:02.00 | 6:28.00 | 184650 | 213749
8 | 47:30.00 | 7:48.00 | 213750 | 248849
9 | 55:18.00 | 6:44.00 | 248850 | 279149
Track 1
Filename W:\_MUSIC ALL\Mary Halvorson Trio - Ghost Loop (2013) [FLAC]\01. into the sea into me (no. 36).wav
Pre-gap length 0:00:02.00
Peak level 96.5 %
Extraction speed 2.5 X
Track quality 99.9 %
Test CRC 9ED47CBB
Copy CRC 9ED47CBB
Track not present in AccurateRip database
Copy OK
Track 2
Filename W:\_MUSIC ALL\Mary Halvorson Trio - Ghost Loop (2013) [FLAC]\02. the cadence of tears (no. 40).wav
Peak level 96.5 %
Extraction speed 2.9 X
Track quality 99.9 %
Test CRC D6FC580F
Copy CRC D6FC580F
Track not present in AccurateRip database
Copy OK
Track 3
Filename W:\_MUSIC ALL\Mary Halvorson Trio - Ghost Loop (2013) [FLAC]\03. crashes like lights (no. 39).wav
Peak level 96.5 %
Extraction speed 3.6 X
Track quality 100.0 %
Test CRC 9CCCA84C
Copy CRC 9CCCA84C
Track not present in AccurateRip database
Copy OK
Track 4
Filename W:\_MUSIC ALL\Mary Halvorson Trio - Ghost Loop (2013) [FLAC]\04. existential tearings (no. 44).wav
Peak level 96.5 %
Extraction speed 4.0 X
Track quality 100.0 %
Test CRC 60CA5122
Copy CRC 60CA5122
Track not present in AccurateRip database
Copy OK
Track 5
Filename W:\_MUSIC ALL\Mary Halvorson Trio - Ghost Loop (2013) [FLAC]\05. to the man who brought the flower (no. 45).wav
Peak level 96.5 %
Extraction speed 4.1 X
Track quality 100.0 %
Test CRC 98B4DEC9
Copy CRC 98B4DEC9
Track not present in AccurateRip database
Copy OK
Track 6
Filename W:\_MUSIC ALL\Mary Halvorson Trio - Ghost Loop (2013) [FLAC]\06. of colorful white finds (no. 38).wav
Peak level 96.5 %
Extraction speed 3.9 X
Track quality 99.9 %
Test CRC 55853AA5
Copy CRC 55853AA5
Track not present in AccurateRip database
Copy OK
Track 7
Filename W:\_MUSIC ALL\Mary Halvorson Trio - Ghost Loop (2013) [FLAC]\07. ghost loop (no. 43).wav
Peak level 96.5 %
Extraction speed 4.7 X
Track quality 100.0 %
Test CRC 778B55C7
Copy CRC 778B55C7
Track not present in AccurateRip database
Copy OK
Track 8
Filename W:\_MUSIC ALL\Mary Halvorson Trio - Ghost Loop (2013) [FLAC]\08. forgotten men in silver (no. 24).wav
Peak level 96.5 %
Extraction speed 3.6 X
Track quality 99.9 %
Test CRC DBEF7856
Copy CRC DBEF7856
Track not present in AccurateRip database
Copy OK
Track 9
Filename W:\_MUSIC ALL\Mary Halvorson Trio - Ghost Loop (2013) [FLAC]\09. deformed weight of hands (no. 28).wav
Peak level 96.5 %
Extraction speed 5.1 X
Track quality 100.0 %
Test CRC C2BF84C1
Copy CRC C2BF84C1
Track not present in AccurateRip database
Copy OK
None of the tracks are present in the AccurateRip database
No errors occurred
End of status report
---- CUETools DB Plugin V2.1.3
[CTDB TOCID: ztxhBifVmMQk6ZByv0eK_SeT1kQ-] found, Submit result: ztxhBifVmMQk6ZByv0eK_SeT1kQ- has been confirmed
[a9534174] (1/1) Accurately ripped
==== Log checksum 5979A8643A3837E966ED896D7D13D8B0DFBBF010935FEAF392F246C1DE684158 ====
 
Содержание индексной карты (.CUE)
REM GENRE Jazz
REM DATE 2013
REM DISCID 7E0E8A09
REM COMMENT "ExactAudioCopy v1.0b3"
PERFORMER "Mary Halvorson Trio"
TITLE "Ghost Loop "
FILE "01. into the sea into me (no. 36).wav" WAVE
TRACK 01 AUDIO
TITLE "into the sea into me (no. 36)"
PERFORMER "Mary Halvorson Trio"
ISRC PLH161300060
INDEX 01 00:00:00
FILE "02. the cadence of tears (no. 40).wav" WAVE
TRACK 02 AUDIO
TITLE "the cadence of tears (no. 40)"
PERFORMER "Mary Halvorson Trio"
ISRC PLH161300061
INDEX 01 00:00:00
FILE "03. crashes like lights (no. 39).wav" WAVE
TRACK 03 AUDIO
TITLE "crashes like lights (no. 39)"
PERFORMER "Mary Halvorson Trio"
ISRC PLH161300062
INDEX 01 00:00:00
FILE "04. existential tearings (no. 44).wav" WAVE
TRACK 04 AUDIO
TITLE "existential tearings (no. 44)"
PERFORMER "Mary Halvorson Trio"
ISRC PLH161300063
INDEX 01 00:00:00
FILE "05. to the man who brought the flower (no. 45).wav" WAVE
TRACK 05 AUDIO
TITLE "to the man who brought the flower (no. 45)"
PERFORMER "Mary Halvorson Trio"
ISRC PLH161300064
INDEX 01 00:00:00
FILE "06. of colorful white finds (no. 38).wav" WAVE
TRACK 06 AUDIO
TITLE "of colorful white finds (no. 38)"
PERFORMER "Mary Halvorson Trio"
ISRC PLH161300065
INDEX 01 00:00:00
FILE "07. ghost loop (no. 43).wav" WAVE
TRACK 07 AUDIO
TITLE "ghost loop (no. 43)"
PERFORMER "Mary Halvorson Trio"
ISRC PLH161300066
INDEX 01 00:00:00
FILE "08. forgotten men in silver (no. 24).wav" WAVE
TRACK 08 AUDIO
TITLE "forgotten men in silver (no. 24)"
PERFORMER "Mary Halvorson Trio"
ISRC PLH161300067
INDEX 01 00:00:00
FILE "09. deformed weight of hands (no. 28).wav" WAVE
TRACK 09 AUDIO
TITLE "deformed weight of hands (no. 28)"
PERFORMER "Mary Halvorson Trio"
ISRC PLH161300068
INDEX 01 00:00:00
 
Лог проверки качества
-----------------------
DON'T MODIFY THIS FILE
-----------------------
PERFORMER: auCDtect Task Manager, ver. 1.6.0 RC1 build 1.6.0.1
Copyright (c) 2008-2010 y-soft. All rights reserved
http://y-soft.org
ANALYZER: auCDtect: CD records authenticity detector, version 0.8.2
Copyright (c) 2004 Oleg Berngardt. All rights reserved.
Copyright (c) 2004 Alexander Djourik. All rights reserved.
FILE: 09. deformed weight of hands (no. 28).flac
Size: 35084326 Hash: AAC527F53C75EBED7151116EBBEFBCAC Accuracy: -m0
Conclusion: CDDA 100%
Signature: 9569EA2F58A07A973B6CE65D5210C6A9D58042D2
FILE: 08. forgotten men in silver (no. 24).flac
Size: 37482623 Hash: E28C6058308F0149AD0DB3E8F81E13C7 Accuracy: -m0
Conclusion: CDDA 100%
Signature: 64F61E0E20E4A3D76AF3908F3ED26DD0F0F23013
FILE: 07. ghost loop (no. 43).flac
Size: 35118214 Hash: 772980ED7A9AB624102B9D0F7D147D99 Accuracy: -m0
Conclusion: CDDA 100%
Signature: 218472838114A918372E75B8577354849997BD1E
FILE: 06. of colorful white finds (no. 38).flac
Size: 32585693 Hash: 903FD6A2F296915077042D457FFDCC83 Accuracy: -m0
Conclusion: CDDA 100%
Signature: 4B91891256A23A80AD57BB926CA1BE0EC65FC141
FILE: 05. to the man who brought the flower (no. 45).flac
Size: 26622979 Hash: 8B87062B20225819414F0297442C0215 Accuracy: -m0
Conclusion: CDDA 100%
Signature: F8D6091D43BD507AA6789B5B3C91B62FC5D91122
FILE: 04. existential tearings (no. 44).flac
Size: 37530068 Hash: 491DB9300BA2EA7626FD372B63EDD763 Accuracy: -m0
Conclusion: CDDA 100%
Signature: 60C4A013574E80C59C20757778A7725020B183B8
FILE: 03. crashes like lights (no. 39).flac
Size: 35281154 Hash: 26C346DB482BE6B000556ACBCC20F861 Accuracy: -m0
Conclusion: CDDA 100%
Signature: EB945AF22A9A2C8DCA9EF32A403C48C4A97B01BD
FILE: 02. the cadence of tears (no. 40).flac
Size: 31577104 Hash: CB24EBEC37D2D22868CD851E69DE2F9C Accuracy: -m0
Conclusion: CDDA 99%
Signature: 81E16BC6049B26E6BEADF1716164A5D239537C59
FILE: 01. into the sea into me (no. 36).flac
Size: 50015867 Hash: 27ED3D23873EC709DAF75A88C6669A96 Accuracy: -m0
Conclusion: CDDA 100%
Signature: D8FC23B676625BFB5610CFAB7C132E9617B33005
 
Состав
Mary Halvorson – guitar
John Hébert – double bass
Ches Smith – drums
По всем вопросам пишите личное сообщение пользователю M0p94ok.
19:15
208
Нет комментариев. Ваш будет первым!