Вы используете незарегистрированную версию компонента "Вкладки"!

Поиск

(Avant-Garde Jazz, Free Improvisation) [CD] Mary Halvorson Septet (Jonathan Finlayson, Jon Irabagon, Ingrid Laubrock, John Hebert, Ches Smith, Jacob Garchik) - Illusionary Sea - 2013 [Firehouse 12], FLAC (tracks+.cue), lossless

(Avant-Garde Jazz, Free Improvisation) [CD] Mary Halvorson Septet (Jonathan Finlayson, Jon Irabagon, Ingrid Laubrock, John Hebert, Ches Smith, Jacob Garchik) - Illusionary Sea - 2013 [Firehouse 12], FLAC (tracks+.cue), lossless
Треклист:
Illusionary Sea
Mary Halvorson Septet Жанр: Avant-Garde Jazz, Free Improvisation
Страна-производитель диска: USA
Год издания: 2013
Издатель (лейбл): Firehouse 12 Records
Номер по каталогу: FH12-04-01-017
Аудиокодек: FLAC (*.flac)
Тип рипа: tracks+.cue
Битрейт аудио: lossless
Продолжительность: 49:53
Источник (релизер): спасибо 6060842
Наличие сканов в содержимом раздачи: нет
Треклист:
1. Illusionary Sea (No. 33)
2. Smiles Of Great Men (No. 34)
3. Red Sky Still Sea (No. 31)
4. Four Pages Of Robots (No. 30)
5. Fourth Dimensional Confession (No. 41)
6. Butterfly Orbit (No. 32)
7. Nairam
 
Лог создания рипа
X Lossless Decoder version 20130720 (144.0)
XLD extraction logfile from 2013-08-13 22:38:14 +0400
Mary Halvorson Septet / Illusionary Sea
Used drive : HL-DT-ST DVDRW GX30N (revision RP09)
Media type : Pressed CD
Ripper mode : XLD Secure Ripper
Disable audio cache : OK for the drive with a cache less than 1375KiB
Make use of C2 pointers : NO
Read offset correction : 6
Max retry count : 100
Gap status : Analyzed, Appended (except HTOA)
TOC of the extracted CD
Track | Start | Length | Start sector | End sector
---------------------------------------------------------
1 | 00:00:00 | 07:07:64 | 0 | 32088
2 | 07:07:64 | 07:38:19 | 32089 | 66457
3 | 14:46:08 | 09:39:07 | 66458 | 109889
4 | 24:25:15 | 07:14:14 | 109890 | 142453
5 | 31:39:29 | 06:42:09 | 142454 | 172612
6 | 38:21:38 | 05:52:44 | 172613 | 199056
7 | 44:14:07 | 05:39:01 | 199057 | 224482
AccurateRip Summary
Disc not found in AccurateRip DB.
All Tracks
Album gain : -1.46 dB
Peak : 0.988922
Statistics
Read error : 0
Jitter error (maybe fixed) : 0
Retry sector count : 0
Damaged sector count : 0
Track 01
Filename : /Users/anch/Music/FLAC/Mary Halvorson Septet - 2013 - Illusionary Sea [MP3 320]/01 - Illusionary Sea (#33).mp3
/Users/anch/Music/FLAC/Mary Halvorson Septet - 2013 - Illusionary Sea [MP3 V0]/01 - Illusionary Sea (#33).mp3
/Users/anch/Music/FLAC/Mary Halvorson Septet - 2013 - Illusionary Sea [FLAC]/01 - Illusionary Sea (#33).flac
Pre-gap length : 00:02:00
Track gain : -0.86 dB
Peak : 0.983337
CRC32 hash (test run) : 0BF8C588
CRC32 hash : 0BF8C588
CRC32 hash (skip zero) : D7AA6FE4
AccurateRip v1 signature : 873B83E2
AccurateRip v2 signature : F3A91EE8
->Track not present in AccurateRip database.
Statistics
Read error : 0
Jitter error (maybe fixed) : 0
Retry sector count : 0
Damaged sector count : 0
Track 02
Filename : /Users/anch/Music/FLAC/Mary Halvorson Septet - 2013 - Illusionary Sea [MP3 320]/02 - Smiles Of Great Men (#34).mp3
/Users/anch/Music/FLAC/Mary Halvorson Septet - 2013 - Illusionary Sea [MP3 V0]/02 - Smiles Of Great Men (#34).mp3
/Users/anch/Music/FLAC/Mary Halvorson Septet - 2013 - Illusionary Sea [FLAC]/02 - Smiles Of Great Men (#34).flac
Track gain : -1.84 dB
Peak : 0.985016
CRC32 hash (test run) : 7A7347A0
CRC32 hash : 7A7347A0
CRC32 hash (skip zero) : 98157693
AccurateRip v1 signature : 2F7703AA
AccurateRip v2 signature : E31E6BB8
->Track not present in AccurateRip database.
Statistics
Read error : 0
Jitter error (maybe fixed) : 0
Retry sector count : 0
Damaged sector count : 0
Track 03
Filename : /Users/anch/Music/FLAC/Mary Halvorson Septet - 2013 - Illusionary Sea [MP3 320]/03 - Red Sky Still Sea (#31).mp3
/Users/anch/Music/FLAC/Mary Halvorson Septet - 2013 - Illusionary Sea [MP3 V0]/03 - Red Sky Still Sea (#31).mp3
/Users/anch/Music/FLAC/Mary Halvorson Septet - 2013 - Illusionary Sea [FLAC]/03 - Red Sky Still Sea (#31).flac
Track gain : 0.17 dB
Peak : 0.988922
CRC32 hash (test run) : C542A2FC
CRC32 hash : C542A2FC
CRC32 hash (skip zero) : F02BE0E7
AccurateRip v1 signature : D6842817
AccurateRip v2 signature : 2349EB3A
->Track not present in AccurateRip database.
Statistics
Read error : 0
Jitter error (maybe fixed) : 0
Retry sector count : 0
Damaged sector count : 0
Track 04
Filename : /Users/anch/Music/FLAC/Mary Halvorson Septet - 2013 - Illusionary Sea [MP3 320]/04 - Four Pages Of Robots (#30).mp3
/Users/anch/Music/FLAC/Mary Halvorson Septet - 2013 - Illusionary Sea [MP3 V0]/04 - Four Pages Of Robots (#30).mp3
/Users/anch/Music/FLAC/Mary Halvorson Septet - 2013 - Illusionary Sea [FLAC]/04 - Four Pages Of Robots (#30).flac
Track gain : -1.36 dB
Peak : 0.984619
CRC32 hash (test run) : B48F84AA
CRC32 hash : B48F84AA
CRC32 hash (skip zero) : 0A5FB1E2
AccurateRip v1 signature : 845E239B
AccurateRip v2 signature : 17EC2143
->Track not present in AccurateRip database.
Statistics
Read error : 0
Jitter error (maybe fixed) : 0
Retry sector count : 0
Damaged sector count : 0
Track 05
Filename : /Users/anch/Music/FLAC/Mary Halvorson Septet - 2013 - Illusionary Sea [MP3 320]/05 - Fourth Dimensional Confession (#41).mp3
/Users/anch/Music/FLAC/Mary Halvorson Septet - 2013 - Illusionary Sea [MP3 V0]/05 - Fourth Dimensional Confession (#41).mp3
/Users/anch/Music/FLAC/Mary Halvorson Septet - 2013 - Illusionary Sea [FLAC]/05 - Fourth Dimensional Confession (#41).flac
Track gain : 0.81 dB
Peak : 0.984528
CRC32 hash (test run) : 785C8FCD
CRC32 hash : 785C8FCD
CRC32 hash (skip zero) : 9C80034E
AccurateRip v1 signature : 3FAF8772
AccurateRip v2 signature : 36FD17F5
->Track not present in AccurateRip database.
Statistics
Read error : 0
Jitter error (maybe fixed) : 0
Retry sector count : 0
Damaged sector count : 0
Track 06
Filename : /Users/anch/Music/FLAC/Mary Halvorson Septet - 2013 - Illusionary Sea [MP3 320]/06 - Butterfly Orbit (#32).mp3
/Users/anch/Music/FLAC/Mary Halvorson Septet - 2013 - Illusionary Sea [MP3 V0]/06 - Butterfly Orbit (#32).mp3
/Users/anch/Music/FLAC/Mary Halvorson Septet - 2013 - Illusionary Sea [FLAC]/06 - Butterfly Orbit (#32).flac
Track gain : -1.78 dB
Peak : 0.981354
CRC32 hash (test run) : B022920A
CRC32 hash : B022920A
CRC32 hash (skip zero) : 8100BE2B
AccurateRip v1 signature : 5E862500
AccurateRip v2 signature : 819AEC15
->Track not present in AccurateRip database.
Statistics
Read error : 0
Jitter error (maybe fixed) : 0
Retry sector count : 0
Damaged sector count : 0
Track 07
Filename : /Users/anch/Music/FLAC/Mary Halvorson Septet - 2013 - Illusionary Sea [MP3 320]/07 - Nairam.mp3
/Users/anch/Music/FLAC/Mary Halvorson Septet - 2013 - Illusionary Sea [MP3 V0]/07 - Nairam.mp3
/Users/anch/Music/FLAC/Mary Halvorson Septet - 2013 - Illusionary Sea [FLAC]/07 - Nairam.flac
Track gain : -3.23 dB
Peak : 0.980499
CRC32 hash (test run) : 6FEBF104
CRC32 hash : 6FEBF104
CRC32 hash (skip zero) : 691D3740
AccurateRip v1 signature : B3F8EC7C
AccurateRip v2 signature : BDC5B4DB
->Track not present in AccurateRip database.
Statistics
Read error : 0
Jitter error (maybe fixed) : 0
Retry sector count : 0
Damaged sector count : 0
No errors occurred
End of status report
 
Содержание индексной карты (.CUE)
TITLE "Illusionary Sea"
PERFORMER "Mary Halvorson Septet"
CATALOG 0616892135548
REM GENRE "Avant-Garde"
REM DATE "2013"
REM DISCNUMBER 1
REM TOTALDISCS 1
REM DISCID 610BB107
REM REPLAYGAIN_ALBUM_GAIN -1.46 dB
REM REPLAYGAIN_ALBUM_PEAK 0.988922
FILE "01 - Illusionary Sea (#33).flac" WAVE
TRACK 01 AUDIO
TITLE "Illusionary Sea (№33)"
PERFORMER "Mary Halvorson Septet"
SONGWRITER "Mary Halvorson"
ISRC USYL80700154
REM REPLAYGAIN_TRACK_GAIN -0.86 dB
REM REPLAYGAIN_TRACK_PEAK 0.983337
INDEX 01 00:00:00
FILE "02 - Smiles Of Great Men (#34).flac" WAVE
TRACK 02 AUDIO
TITLE "Smiles Of Great Men (№34)"
PERFORMER "Mary Halvorson Septet"
SONGWRITER "Mary Halvorson"
ISRC USYL80700155
REM REPLAYGAIN_TRACK_GAIN -1.84 dB
REM REPLAYGAIN_TRACK_PEAK 0.985016
INDEX 01 00:00:00
FILE "03 - Red Sky Still Sea (#31).flac" WAVE
TRACK 03 AUDIO
TITLE "Red Sky Still Sea (№31)"
PERFORMER "Mary Halvorson Septet"
SONGWRITER "Mary Halvorson"
ISRC USYL80700156
REM REPLAYGAIN_TRACK_GAIN 0.17 dB
REM REPLAYGAIN_TRACK_PEAK 0.988922
INDEX 01 00:00:00
FILE "04 - Four Pages Of Robots (#30).flac" WAVE
TRACK 04 AUDIO
TITLE "Four Pages Of Robots (№30)"
PERFORMER "Mary Halvorson Septet"
SONGWRITER "Mary Halvorson"
ISRC USYL80700157
REM REPLAYGAIN_TRACK_GAIN -1.36 dB
REM REPLAYGAIN_TRACK_PEAK 0.984619
INDEX 01 00:00:00
FILE "05 - Fourth Dimensional Confession (#41).flac" WAVE
TRACK 05 AUDIO
TITLE "Fourth Dimensional Confession (№41)"
PERFORMER "Mary Halvorson Septet"
SONGWRITER "Mary Halvorson"
ISRC USYL80700158
REM REPLAYGAIN_TRACK_GAIN 0.81 dB
REM REPLAYGAIN_TRACK_PEAK 0.984528
INDEX 01 00:00:00
FILE "06 - Butterfly Orbit (#32).flac" WAVE
TRACK 06 AUDIO
TITLE "Butterfly Orbit (№32)"
PERFORMER "Mary Halvorson Septet"
SONGWRITER "Mary Halvorson"
ISRC USYL80700159
REM REPLAYGAIN_TRACK_GAIN -1.78 dB
REM REPLAYGAIN_TRACK_PEAK 0.981354
INDEX 01 00:00:00
FILE "07 - Nairam.flac" WAVE
TRACK 07 AUDIO
TITLE "Nairam"
PERFORMER "Mary Halvorson Septet"
SONGWRITER "Mary Halvorson"
ISRC USYL80700160
REM REPLAYGAIN_TRACK_GAIN -3.23 dB
REM REPLAYGAIN_TRACK_PEAK 0.980499
INDEX 01 00:00:00
 
Об альбоме
Guitarist Mary Halvorson's signature sound and methodologies have been making an impact within avant-garde and progressive-jazz circles on a global basis. Illusionary Sea marks the debut of her septet, comprised of impressionable players often residing at the forefront of the newer kindling of what may loosely be classified as jazz. Here, like minds coalesce for an album that crosses jazz, classical and avant-garde frontiers, via Halvorson's intriguing compositions and oscillating, wave-like arrangements that rarely inhabit a continuous plane.
The guitarist steers the festivities with unorthodox chord clusters and nimble single note lines that sometimes drift into the ozone on her liquefying fade-outs. Many of these works are cohesively structured to complement the improvisational element. With quaintly organized melodies and cheery themes, it's an adventuresome gala, as the septet crosses borders amid variable tempos that ride along a bouncy path.
"Red Sky Still Sea (no. 31)" is a temperate blues driven piece, featuring soft horns and a flourishing line of attack. But many of these works tender variable levels of intensity and pitch, constructed with intersecting passageways and layered horn arrangements. It's a polytonal endeavor that toggles between conventional modern jazz practices, with free form soloing jaunts, and classical-type austerity.
Nascent trumpeter Jonathan Finlayson's passionate and articulately expressed solo on "Fourth Dimensional Confession (no. 41)," is tinted with regal progressions, riding atop the offbeat background deviations by the hornists and drummer Ches Smith's rolling toms patterns. Yet this piece eventually emerges as a thematic opus, perhaps conducive for a cinematic musical score, and Halvorson's brisk linear lines and slurring choruses generate an off- the-wall outlook. However, the storyline equates to a rite of passage of sorts.
Halvorson's technical mark of distinction and multidimensional compositions are complex, yet uncannily attainable, even when considering the outside jazz perspective. We can only imagine what looms ahead for this extraordinary artiste. (Glenn Astarita, AllAboutJazz)
 
Состав

Mary Halvorson - guitar
Jonathan Finlayson - trumpet
Jon Irabagon - alto saxophone
Ingrid Laubrock - tenor saxophone
Jacob Garchik - trombone
John Hébert - bass
Ches Smith - drums
По всем вопросам пишите личное сообщение пользователю M0p94ok.
00:26
142
Нет комментариев. Ваш будет первым!