Вы используете незарегистрированную версию компонента "Вкладки"!

Поиск

(Avant-Garde Jazz) Butch Morris - Dust To Dust - 1991, FLAC (tracks+.cue), lossless

(Avant-Garde Jazz) Butch Morris - Dust To Dust - 1991, FLAC (tracks+.cue), lossless
Треклист:
♦ Butch Morris - Dust To Dust ♦
Жанр: Avant-Garde Jazz
Страна-производитель диска: USA
Год издания: 1991
Издатель (лейбл): New World / Countercurrents
Номер по каталогу: 804087-2
Аудиокодек: FLAC (*.flac)
Тип рипа: tracks+.cue
Битрейт аудио: lossless
Продолжительность: 01:00:42
Источник (релизер): Рип с диска.
Наличие сканов в содержимом раздачи: да
Треклист:
01. Othello B [08:05]
02. The Bartok Comprovisation [07:11]
03. Via Talciona [12:20]
04. Long Goodbye [10:38]
05. Dust To Dust, Second And Third Parts [07:39]
06. Food Chain Dialogue [07:40]
07. Othello A [07:08]
 
Лог создания рипа
Exact Audio Copy V1.0 beta 3 from 29. August 2011
EAC extraction logfile from 22. September 2013, 19:08
Butch Morris / Dust To Dust
Used drive : Optiarc DVD RW AD-5200A Adapter: 0 ID: 0
Read mode : Secure
Utilize accurate stream : Yes
Defeat audio cache : Yes
Make use of C2 pointers : No
Read offset correction : 48
Overread into Lead-In and Lead-Out : No
Fill up missing offset samples with silence : Yes
Delete leading and trailing silent blocks : No
Null samples used in CRC calculations : Yes
Used interface : Native Win32 interface for Win NT & 2000
Gap handling : Appended to previous track
Used output format : User Defined Encoder
Selected bitrate : 128 kBit/s
Quality : High
Add ID3 tag : No
Command line compressor : C:\Program Files\Exact Audio Copy\Flac\flac.exe
Additional command line options : -V -8 -T "Genre=%genre%" -T "Artist=%artist%" -T "Title=%title%" -T "Album=%albumtitle%" -T "Date=%year%" -T "Tracknumber=%tracknr%" -T "Comment=%comment%" %source%
TOC of the extracted CD
Track | Start | Length | Start sector | End sector
---------------------------------------------------------
1 | 0:00.00 | 8:05.12 | 0 | 36386
2 | 8:05.12 | 7:11.00 | 36387 | 68711
3 | 15:16.12 | 12:20.40 | 68712 | 124251
4 | 27:36.52 | 10:38.35 | 124252 | 172136
5 | 38:15.12 | 7:39.00 | 172137 | 206561
6 | 45:54.12 | 7:40.45 | 206562 | 241106
7 | 53:34.57 | 7:08.03 | 241107 | 273209
Track 1
Filename F:\1\01. Othello B.wav
Pre-gap length 0:00:02.00
Peak level 86.1 %
Extraction speed 2.8 X
Track quality 100.0 %
Test CRC 67E45B82
Copy CRC 67E45B82
Accurately ripped (confidence 2) [E3ADEF40] (AR v2)
Copy OK
Track 2
Filename F:\1\02. The Bartok Comprovisation.wav
Pre-gap length 0:00:06.37
Peak level 83.6 %
Extraction speed 3.2 X
Track quality 100.0 %
Test CRC 29ED1A6D
Copy CRC 29ED1A6D
Accurately ripped (confidence 2) [1BFAE866] (AR v2)
Copy OK
Track 3
Filename F:\1\03. Via Talciona.wav
Pre-gap length 0:00:05.57
Peak level 99.5 %
Extraction speed 3.6 X
Track quality 100.0 %
Test CRC 0E141C34
Copy CRC 0E141C34
Accurately ripped (confidence 2) [B66FE484] (AR v2)
Copy OK
Track 4
Filename F:\1\04. Long Goodbye.wav
Pre-gap length 0:00:07.60
Peak level 75.5 %
Extraction speed 3.7 X
Track quality 100.0 %
Test CRC 2F38DF35
Copy CRC 2F38DF35
Accurately ripped (confidence 2) [73E1742F] (AR v2)
Copy OK
Track 5
Filename F:\1\05. Dust To Dust, Second And Third Parts.wav
Pre-gap length 0:00:06.62
Peak level 84.4 %
Extraction speed 3.6 X
Track quality 100.0 %
Test CRC E1042E04
Copy CRC E1042E04
Accurately ripped (confidence 2) [8F55E9A6] (AR v2)
Copy OK
Track 6
Filename F:\1\06. Food Chain Dialogue.wav
Pre-gap length 0:00:05.57
Peak level 95.8 %
Extraction speed 3.6 X
Track quality 100.0 %
Test CRC 979972CB
Copy CRC 979972CB
Accurately ripped (confidence 2) [A6BBB803] (AR v2)
Copy OK
Track 7
Filename F:\1\07. Othello A.wav
Pre-gap length 0:00:06.60
Peak level 57.7 %
Extraction speed 3.6 X
Track quality 100.0 %
Test CRC AF3455D5
Copy CRC AF3455D5
Accurately ripped (confidence 2) [B5157BBF] (AR v2)
Copy OK
All tracks accurately ripped
No errors occurred
End of status report
==== Log checksum B696542AEF7E6FAA44F8ADD9AB71378D32B26F2018FD087723C84D70C93EB313 ====
 
Содержание индексной карты (.CUE)
REM GENRE Jazz
REM DATE 1991
REM DISCID 6F0E3A07
REM COMMENT "ExactAudioCopy v1.0b3"
PERFORMER "Butch Morris"
TITLE "Dust To Dust"
FILE "01. Othello B.wav" WAVE
TRACK 01 AUDIO
TITLE "Othello B"
PERFORMER "Butch Morris"
INDEX 01 00:00:00
TRACK 02 AUDIO
TITLE "The Bartok Comprovisation"
PERFORMER "Butch Morris"
INDEX 00 07:58:50
FILE "02. The Bartok Comprovisation.wav" WAVE
INDEX 01 00:00:00
TRACK 03 AUDIO
TITLE "Via Talciona"
PERFORMER "Butch Morris"
INDEX 00 07:05:18
FILE "03. Via Talciona.wav" WAVE
INDEX 01 00:00:00
TRACK 04 AUDIO
TITLE "Long Goodbye"
PERFORMER "Butch Morris"
INDEX 00 12:12:55
FILE "04. Long Goodbye.wav" WAVE
INDEX 01 00:00:00
TRACK 05 AUDIO
TITLE "Dust To Dust, Second And Third Parts"
PERFORMER "Butch Morris"
INDEX 00 10:31:48
FILE "05. Dust To Dust, Second And Third Parts.wav" WAVE
INDEX 01 00:00:00
TRACK 06 AUDIO
TITLE "Food Chain Dialogue"
PERFORMER "Butch Morris"
INDEX 00 07:33:18
FILE "06. Food Chain Dialogue.wav" WAVE
INDEX 01 00:00:00
TRACK 07 AUDIO
TITLE "Othello A"
PERFORMER "Butch Morris"
INDEX 00 07:33:60
FILE "07. Othello A.wav" WAVE
INDEX 01 00:00:00
 
Состав
Personnel: Lawrence D. "Butch" Morris (conductor); J.A. Deane (trombone, electronics); John Purcell (oboe); Vickey Bodner (English horn); Marty Ehrlich (clarinet); Janet Grice (bassoon); Jason Hwang (violin); Zeena Parkins (harp); Brian Carrott (vibraphone); Myra Melford (piano); Wayne Horvitz (keyboards, electronics); Jean-Paul Bourelly (guitar); Andrew Cyrille (drums).
Any questions -> support@pro-jazz.com. По всем вопросам пишите -> support@pro-jazz.com
18:25
124
Нет комментариев. Ваш будет первым!