Вы используете незарегистрированную версию компонента "Вкладки"!

Поиск

(Avant-Garde Jazz, Big Band, Nine Winds) Harris Eisenstadt - Ahimsa Orchestra - 2005, FLAC (tracks+.cue), lossless

(Avant-Garde Jazz, Big Band, Nine Winds) Harris Eisenstadt - Ahimsa Orchestra - 2005, FLAC (tracks+.cue), lossless
Треклист:
Harris Eisenstadt / Ahimsa Orchestra
Жанр: Avant-Garde Jazz, Big Band, Nine Winds
Страна-производитель диска: US
Год издания: 2005
Издатель (лейбл): 9 Winds Records
Номер по каталогу: NWCD0237
Страна: Canada
Аудиокодек: FLAC (*.flac)
Тип рипа: tracks+.cue
Битрейт аудио: lossless
Продолжительность: 60:07
Источник (релизер): свой фирменный диск
Наличие сканов в содержимом раздачи:
Треклист:
Non-Violence
1. I 7:32
2. II 11:18
3. III 6:52
Relief
4. I 11:41
5. II 8:28
6. III 9:16
7. IV 4:52
 
Лог создания рипа
Exact Audio Copy V1.0 beta 3 from 29. August 2011
EAC extraction logfile from 10. November 2013, 21:13
Harris Eisenstadt / Ahimsa Orchestra
Used drive : PIONEER DVD-RW DVR-115D Adapter: 0 ID: 0
Read mode : Secure
Utilize accurate stream : Yes
Defeat audio cache : Yes
Make use of C2 pointers : No
Read offset correction : 48
Overread into Lead-In and Lead-Out : No
Fill up missing offset samples with silence : Yes
Delete leading and trailing silent blocks : No
Null samples used in CRC calculations : Yes
Used interface : Installed external ASPI interface
Gap handling : Appended to previous track
Used output format : User Defined Encoder
Selected bitrate : 896 kBit/s
Quality : High
Add ID3 tag : No
Command line compressor : C:\Program Files\Exact Audio Copy\FLAC\FLAC.EXE
Additional command line options : -6 -V -T "ARTIST=%artist%" -T "TITLE=%title%" -T "ALBUM=%albumtitle%" -T "DATE=%year%" -T "TRACKNUMBER=%tracknr%" -T "GENRE=%genre%" -T "COMMENT=%comment%" -T "BAND=%albuminterpret%" -T "COMPOSER=%composer%" %haslyrics%--tag-from-file=LYRICS="%lyricsfile%"%haslyrics% -T "DISCNUMBER=%cdnumber%" -T "TOTALDISCS=%totalcds%" -T "TOTALTRACKS=%numtracks%" %hascover%--picture="%coverfile%"%hascover% %source% -o %dest%
TOC of the extracted CD
Track | Start | Length | Start sector | End sector
---------------------------------------------------------
1 | 0:00.00 | 7:34.66 | 0 | 34115
2 | 7:34.66 | 11:20.73 | 34116 | 85188
3 | 18:55.64 | 6:55.05 | 85189 | 116318
4 | 25:50.69 | 11:40.57 | 116319 | 168875
5 | 37:31.51 | 8:28.01 | 168876 | 206976
6 | 45:59.52 | 9:15.52 | 206977 | 248653
7 | 55:15.29 | 4:52.19 | 248654 | 270572
Track 1
Filename D:\zzz\01 - Non-Violence I.wav
Pre-gap length 0:00:02.00
Peak level 96.6 %
Extraction speed 4.9 X
Track quality 100.0 %
Test CRC B19347ED
Copy CRC B19347ED
Accurately ripped (confidence 1) [997FB8FD] (AR v1)
Copy OK
Track 2
Filename D:\zzz\02 - Non-Violence II.wav
Pre-gap length 0:00:03.00
Peak level 96.6 %
Extraction speed 6.0 X
Track quality 100.0 %
Test CRC A31B1518
Copy CRC A31B1518
Accurately ripped (confidence 1) [4121FA7E] (AR v1)
Copy OK
Track 3
Filename D:\zzz\03 - Non-Violence III.wav
Pre-gap length 0:00:03.00
Peak level 96.6 %
Extraction speed 6.6 X
Track quality 100.0 %
Test CRC 9F894FCD
Copy CRC 9F894FCD
Accurately ripped (confidence 1) [C6658D3F] (AR v1)
Copy OK
Track 4
Filename D:\zzz\04 - Relief I.wav
Pre-gap length 0:00:03.00
Peak level 96.6 %
Extraction speed 7.5 X
Track quality 100.0 %
Test CRC ED5DDDE6
Copy CRC ED5DDDE6
Accurately ripped (confidence 1) [79A887B9] (AR v1)
Copy OK
Track 5
Filename D:\zzz\05 - Relief II.wav
Peak level 88.6 %
Extraction speed 7.9 X
Track quality 100.0 %
Test CRC 31C00F7B
Copy CRC 31C00F7B
Accurately ripped (confidence 1) [12834922] (AR v1)
Copy OK
Track 6
Filename D:\zzz\06 - Relief III.wav
Peak level 96.6 %
Extraction speed 8.5 X
Track quality 100.0 %
Test CRC FC2AEC2F
Copy CRC FC2AEC2F
Accurately ripped (confidence 1) [DBEB1A65] (AR v1)
Copy OK
Track 7
Filename D:\zzz\07 - Relief IV.wav
Peak level 96.6 %
Extraction speed 8.4 X
Track quality 100.0 %
Test CRC D017EADD
Copy CRC D017EADD
Accurately ripped (confidence 1) [E2FB08D5] (AR v1)
Copy OK
All tracks accurately ripped
No errors occurred
End of status report
==== Log checksum 7D2DCBB078F3CA976B08B338808FA08F32DF84BF3FCD958523C6FE62C8DCBD7F ====
 
Содержание индексной карты (.CUE)
REM GENRE "Avant-Garde Jazz"
REM DATE 2005
REM DISCID 540E1707
REM COMMENT "ExactAudioCopy v1.0b3"
PERFORMER "Harris Eisenstadt"
TITLE "Ahimsa Orchestra"
FILE "01 - Non-Violence I.wav" WAVE
TRACK 01 AUDIO
TITLE "Non-Violence I"
PERFORMER "Harris Eisenstadt"
INDEX 01 00:00:00
TRACK 02 AUDIO
TITLE "Non-Violence II"
PERFORMER "Harris Eisenstadt"
INDEX 00 07:31:66
FILE "02 - Non-Violence II.wav" WAVE
INDEX 01 00:00:00
TRACK 03 AUDIO
TITLE "Non-Violence III"
PERFORMER "Harris Eisenstadt"
INDEX 00 11:17:73
FILE "03 - Non-Violence III.wav" WAVE
INDEX 01 00:00:00
TRACK 04 AUDIO
TITLE "Relief I"
PERFORMER "Harris Eisenstadt"
INDEX 00 06:52:05
FILE "04 - Relief I.wav" WAVE
INDEX 01 00:00:00
FILE "05 - Relief II.wav" WAVE
TRACK 05 AUDIO
TITLE "Relief II"
PERFORMER "Harris Eisenstadt"
INDEX 01 00:00:00
FILE "06 - Relief III.wav" WAVE
TRACK 06 AUDIO
TITLE "Relief III"
PERFORMER "Harris Eisenstadt"
INDEX 01 00:00:00
FILE "07 - Relief IV.wav" WAVE
TRACK 07 AUDIO
TITLE "Relief IV"
PERFORMER "Harris Eisenstadt"
INDEX 01 00:00:00
 
Лог проверки качества
d:\>d:\aucdtect -d/-m0 d:\zzz\*.wav
auCDtect: CD records authenticity detector, version 0.8.2
Copyright (c) 2004 Oleg Berngardt. All rights reserved.
Copyright (c) 2004 Alexander Djourik. All rights reserved.
------------------------------------------------------------
Processing file: [01. Non-Violence I.wav]
------------------------------------------------------------
This track looks like MPEG with probability 90%
------------------------------------------------------------
Processing file: [02. Non-Violence II.wav]
------------------------------------------------------------
This track looks like CDDA with probability 58%
------------------------------------------------------------
Processing file: [03. Non-Violence III.wav]
------------------------------------------------------------
This track looks like CDDA with probability 49%
------------------------------------------------------------
Processing file: [04. Relief I.wav]
------------------------------------------------------------
This track looks like CDDA with probability 43%
------------------------------------------------------------
Processing file: [05. Relief II.wav]
------------------------------------------------------------
This track looks like CDDA with probability 92%
------------------------------------------------------------
Processing file: [06. Relief III.wav]
------------------------------------------------------------
This track looks like CDDA with probability 43%
------------------------------------------------------------
Processing file: [07. Relief IV.wav]
------------------------------------------------------------
This track looks like MPEG with probability 79%
------------------------------------------------------------
Final Conclusion:
------------------------------------------------------------
These tracks looks like MPEGs with probability 79%
Доп. информация:
 
Album Info & AMG Review
All compositions by Harris Eisenstadt
Tracks 1-3 recorded live 03.26.04 at The Jazz House, Berkeley, CA by Karen Stackpole
Tracks 4-7 recorded live 01.10.05 at Selah, Los Angeles, CA by David Rothbaum
Mastered 05.19.05 at Newzone Studio, Los Angeles, CA by Wayne Peet
Design and photography by David Rothbaum
"Literally speaking, ahimsa means non-violence. But to me it has an infinitely higher meaning. It means that you may not offend anybody; you may not harbor uncharitable thought, even in connection with those who you consider your enemies. To one who follows this doctrine, there are no enemies. If you express your love -- Ahimsa -- in such a manner that it impresses itself indelibly upon your so called enemy, he must return that love." - Mahatma Gandhi
Much thanks to all the musicans involved, Karen Stackpole, David Rothbaum, Wayne Peet, Nels Cline, Jeremy Drake, Nine Winds, The Jazz House and Selah.
"Ahimsa" was the word that defined Gandhi's nonviolence principle. One wonders why Harris Eisenstadt chose this name for his large-scale project, but it does sound a bit too nonviolent in the end -- it lacks a good smack. Eisenstadt's writing for his other groups (usually quintets or bigger) balances complex themes and structured improvisation. In this case, it seems that all his compositional efforts went into devising playing/pairing sequences and a spontaneous conduction vocabulary for conductor Omid Zoufonoun to use. The result is music that is much more abstract, cluttered, and flat. This album consists of two long pieces (broken down into movements) recorded live on separate occasions, with different lineups, although both are 12-piece groups with similar instrumentation. "Non-Violence" features, among others, flutist Steve Adams, oboist Kyle Bruckmann, and electric guitarist Bill Horvitz. The lineup for "Relief" includes percussionist Alex Cline, bassist Bill Casale, Vinny Golia on bass clarinet, and Sara Schoenbeck on bassoon -- the latter two deliver strong solos. Paradoxically, Eisenstadt, who remains very discreet when he leads smaller groups, takes a drum solo as part of this large ensemble. Ahimsa Orchestra contains good solo spots, nice ensemble workouts, and some interesting interplay within certain subgroupings, but, surprisingly, it all amounts to little. Some listeners will believe this results from the fact that melodic themes are few and far between, but even if that's true, it is not the reason why this album is a disappointment. This experiment simply doesn't lift off. Its shortcomings become even more apparent when one compares this album to The Soul and Gone, a seven-piece project released around the same time.
 
Состав
Harris Eisenstadt: percussion
Noah Phillips: electric guitar
Sara Schoenbeck: bassoon
Omid Zoufonoun: conductor
Steve Adams: c flute (1-3)
David Brandt: vibraphone (1-3)
Kyle Bruckmann: oboe (1-3)
George Cremaschi: contrabass (1-3)
Phillip Greenlief: bflat clarinet (1-3)
Bill Horvitz: electric guitar (1-3)
Kris Tiner: trumpet (1-3)
Toyoji Tomita: trombone (1-3)
Ellen Burr: c flute (4-7)
Bill Casale: contrabass (4-7)
Jessica Catron: cello (4-7)
Alex Cline: percussion (4-7)
Dan Clucas: trumpet (4-7)
Vinny Golia: bass clarinet (4-7)
George McMullen: trombone (4-7)
Brian Walsh: bflat clarinet (4-7)
Mark Weaver: tuba (4-7)
Any questions -> support@pro-jazz.com. По всем вопросам пишите -> support@pro-jazz.com
20:32
158
Нет комментариев. Ваш будет первым!