Вы используете незарегистрированную версию компонента "Вкладки"!

Поиск

(Avant-Garde, Free Improvisation, NotTwo Records) [CD] Steve Swell's Slammin' the Infinite (Sabir Mateen, Matthew Heyner, Klaus Kugel) - Remember Now - 2006, FLAC (tracks+.cue), lossless

(Avant-Garde, Free Improvisation, NotTwo Records) [CD] Steve Swell's Slammin' the Infinite (Sabir Mateen, Matthew Heyner, Klaus Kugel) - Remember Now - 2006, FLAC (tracks+.cue), lossless
Треклист:
Steve Swell’s Slammin’ the Infinite / Remember Now
Жанр: Avant-Garde, Free Improvisation, NotTwo Records
Носитель: CD
Страна-производитель диска: Poland
Год издания: 2006
Издатель (лейбл): NotTwo Records
Номер по каталогу: MW 772-2
Аудиокодек: FLAC (*.flac)
Тип рипа: tracks+.cue
Битрейт аудио: lossless
Продолжительность: 54:52
Источник (релизер): я
Наличие сканов в содержимом раздачи: да
Треклист:
1. Antlers 3:05
2. MB-1 (for Marion Brown) 9:21
3. Patient Explorer 6:34
4. Grow Your Own 4:26
5. We Interrupt This Channel 10:51
6. Remember Now 7:45
7. Different Degrees 7:05
8. Stride Right 5:45
All compositions by Steve Swell.
Recorded at Newsonic Studios, Brooklyn, NY, October 4, 2005.
Steve Swell – Trombone
Sabir Mateen – Alto Sax, Tenor Sax, Clarinet, Alto Clarinet
Matthew Heyner – Bass
Klaus Kugel – Drums
 
Лог создания рипа
Exact Audio Copy V1.0 beta 3 from 29. August 2011
EAC extraction logfile from 17. September 2014, 19:08
Steve Swell's Slammin' the Infinite / Remember Now
Used drive : SlimtypeeNAU508 5 Adapter: 1 ID: 0
Read mode : Secure
Utilize accurate stream : Yes
Defeat audio cache : Yes
Make use of C2 pointers : No
Read offset correction : 6
Overread into Lead-In and Lead-Out : No
Fill up missing offset samples with silence : Yes
Delete leading and trailing silent blocks : No
Null samples used in CRC calculations : Yes
Used interface : Native Win32 interface for Win NT & 2000
Gap handling : Appended to previous track
Used output format : User Defined Encoder
Selected bitrate : 768 kBit/s
Quality : High
Add ID3 tag : No
Command line compressor : C:\Program Files (x86)\Exact Audio Copy\Flac\flac.exe
Additional command line options : -8 -V -T "ARTIST=%artist%" -T "TITLE=%title%" -T "ALBUM=%albumtitle%" -T "DATE=%year%" -T "TRACKNUMBER=%tracknr%" -T "TOTALTRACKS=%numtracks%" -T "GENRE=%genre%" -T "ALBUMARTIST=%albumartist%" -T "ALBUM ARTIST=%albumartist%" -T "COMMENT=EAC Secure Mode, Test & Copy, AccurateRip, FLAC -8" %source%
TOC of the extracted CD
Track | Start | Length | Start sector | End sector
---------------------------------------------------------
1 | 0:00.00 | 3:04.39 | 0 | 13838
2 | 3:04.39 | 9:20.57 | 13839 | 55895
3 | 12:25.21 | 6:33.50 | 55896 | 85420
4 | 18:58.71 | 4:26.33 | 85421 | 105403
5 | 23:25.29 | 10:51.22 | 105404 | 154250
6 | 34:16.51 | 7:45.28 | 154251 | 189153
7 | 42:02.04 | 7:05.25 | 189154 | 221053
8 | 49:07.29 | 5:44.61 | 221054 | 246914
Track 1
Filename C:\EAC rips\01 - Antlers.wav
Pre-gap length 0:00:02.00
Peak level 100.0 %
Extraction speed 1.9 X
Track quality 100.0 %
Test CRC BA4E8A1E
Copy CRC BA4E8A1E
Cannot be verified as accurate (confidence 1) [F912BC8F], AccurateRip returned [5052CC88] (AR v2)
Copy OK
Track 2
Filename C:\EAC rips\02 - MB-1 (for Marion Brown).wav
Peak level 100.0 %
Extraction speed 2.3 X
Track quality 99.9 %
Test CRC 8F5661D6
Copy CRC 8F5661D6
Cannot be verified as accurate (confidence 1) [4DD029B1], AccurateRip returned [C3D1DB6D] (AR v2)
Copy OK
Track 3
Filename C:\EAC rips\03 - Patient Explorer.wav
Peak level 100.0 %
Extraction speed 2.9 X
Track quality 100.0 %
Test CRC 3C523ACB
Copy CRC 3C523ACB
Cannot be verified as accurate (confidence 1) [B0CF6513], AccurateRip returned [38B21B14] (AR v2)
Copy OK
Track 4
Filename C:\EAC rips\04 - Grow Your Own.wav
Peak level 100.0 %
Extraction speed 3.0 X
Track quality 100.0 %
Test CRC 12084332
Copy CRC 12084332
Cannot be verified as accurate (confidence 1) [91F5006F], AccurateRip returned [7C4269E1] (AR v2)
Copy OK
Track 5
Filename C:\EAC rips\05 - We Interrupt This Channel.wav
Peak level 98.7 %
Extraction speed 3.5 X
Track quality 100.0 %
Test CRC 65332BFA
Copy CRC 65332BFA
Cannot be verified as accurate (confidence 1) [FAB12B24], AccurateRip returned [BEBEE0EA] (AR v2)
Copy OK
Track 6
Filename C:\EAC rips\06 - Remember Now.wav
Peak level 100.0 %
Extraction speed 3.8 X
Track quality 100.0 %
Test CRC 18548D3E
Copy CRC 18548D3E
Cannot be verified as accurate (confidence 1) [1A7C8AF8], AccurateRip returned [74597347] (AR v2)
Copy OK
Track 7
Filename C:\EAC rips\07 - Different Degrees.wav
Peak level 100.0 %
Extraction speed 4.0 X
Track quality 100.0 %
Test CRC D85B7050
Copy CRC D85B7050
Cannot be verified as accurate (confidence 1) [00B85A1A], AccurateRip returned [88E9F57F] (AR v2)
Copy OK
Track 8
Filename C:\EAC rips\08 - Stride Right.wav
Peak level 100.0 %
Extraction speed 4.2 X
Track quality 100.0 %
Test CRC 1FA379D9
Copy CRC 1FA379D9
Cannot be verified as accurate (confidence 1) [240CF27C], AccurateRip returned [16F10212] (AR v2)
Copy OK
No tracks could be verified as accurate
You may have a different pressing from the one(s) in the database
No errors occurred
End of status report
---- CUETools DB Plugin V2.1.4
[CTDB TOCID: 3T6Hd1WjzROfWNCfwvvnHPhn.BE-] disk not present in database
Submit result: 3T6Hd1WjzROfWNCfwvvnHPhn.BE- has been uploaded
==== Log checksum 8FCFC721E35692D2B739EFA8B68F0561490CF77A0A5108EAF8F12C48D97D021E ====
 
Содержание индексной карты (.CUE)
REM GENRE Jazz
REM DATE 2006
REM DISCID 690CDC08
REM COMMENT "ExactAudioCopy v1.0b3"
PERFORMER "Steve Swell's Slammin' the Infinite"
TITLE "Remember Now"
FILE "01 - Antlers.wav" WAVE
TRACK 01 AUDIO
TITLE "Antlers"
PERFORMER "Steve Swell's Slammin' the Infinite"
INDEX 01 00:00:00
FILE "02 - MB-1 (for Marion Brown).wav" WAVE
TRACK 02 AUDIO
TITLE "MB-1 (for Marion Brown)"
PERFORMER "Steve Swell's Slammin' the Infinite"
INDEX 01 00:00:00
FILE "03 - Patient Explorer.wav" WAVE
TRACK 03 AUDIO
TITLE "Patient Explorer"
PERFORMER "Steve Swell's Slammin' the Infinite"
INDEX 01 00:00:00
FILE "04 - Grow Your Own.wav" WAVE
TRACK 04 AUDIO
TITLE "Grow Your Own"
PERFORMER "Steve Swell's Slammin' the Infinite"
INDEX 01 00:00:00
FILE "05 - We Interrupt This Channel.wav" WAVE
TRACK 05 AUDIO
TITLE "We Interrupt This Channel"
PERFORMER "Steve Swell's Slammin' the Infinite"
INDEX 01 00:00:00
FILE "06 - Remember Now.wav" WAVE
TRACK 06 AUDIO
TITLE "Remember Now"
PERFORMER "Steve Swell's Slammin' the Infinite"
INDEX 01 00:00:00
FILE "07 - Different Degrees.wav" WAVE
TRACK 07 AUDIO
TITLE "Different Degrees"
PERFORMER "Steve Swell's Slammin' the Infinite"
INDEX 01 00:00:00
FILE "08 - Stride Right.wav" WAVE
TRACK 08 AUDIO
TITLE "Stride Right"
PERFORMER "Steve Swell's Slammin' the Infinite"
INDEX 01 00:00:00
По всем вопросам пишите личное сообщение пользователю M0p94ok.
06:33
139
Нет комментариев. Ваш будет первым!