Вы используете незарегистрированную версию компонента "Вкладки"!

Поиск

(Avant-Garde, Free Improvisation, NotTwo Records) [CD] Steve Swell's Slammin' the Infinite (Sabir Mateen, Matthew Heyner, Klaus Kugel, John Blum) - Live @ the Vision Festival - 2007, FLAC (tracks+.cue), lossless

(Avant-Garde, Free Improvisation, NotTwo Records) [CD] Steve Swell's Slammin' the Infinite (Sabir Mateen, Matthew Heyner, Klaus Kugel, John Blum) - Live @ the Vision Festival - 2007, FLAC (tracks+.cue), lossless
Треклист:
Steve Swell’s Slammin’ the Infinite / Live @ the Vision Festival
Жанр: Avant-Garde, Free Improvisation, NotTwo Records
Носитель: CD
Страна-производитель диска (релиза): Poland
Год издания: 2007
Издатель (лейбл): NotTwo Records
Номер по каталогу: MW 780-2
Аудиокодек: FLAC (*.flac)
Тип рипа: tracks+.cue
Битрейт аудио: lossless
Продолжительность: 46:44
Источник (релизер): я
Наличие сканов в содержимом раздачи: да
Треклист:
1. Improv / Box Set 16:11
2. For Grachan 15:37
3. Patient Explorer / For Frank Lowe 14:55
All compositions by Steve Swell.
Recorded live @ the Vision Festival, NYC June 17, 2006.
Steve Swell – Trombone
Sabir Mateen – Alto Sax, Tenor Sax, Clarinet, Flute
Matthew Heyner – Bass
Klaus Kugel – Drums
John Blum – Piano
 
Лог создания рипа
Exact Audio Copy V1.0 beta 3 from 29. August 2011
EAC extraction logfile from 30. September 2014, 17:57
Steve Swell's Slammin' the Infinite / Live @ the Vision Festival
Used drive : SlimtypeeNAU508 5 Adapter: 1 ID: 0
Read mode : Secure
Utilize accurate stream : Yes
Defeat audio cache : Yes
Make use of C2 pointers : No
Read offset correction : 6
Overread into Lead-In and Lead-Out : No
Fill up missing offset samples with silence : Yes
Delete leading and trailing silent blocks : No
Null samples used in CRC calculations : Yes
Used interface : Native Win32 interface for Win NT & 2000
Gap handling : Appended to previous track
Used output format : User Defined Encoder
Selected bitrate : 768 kBit/s
Quality : High
Add ID3 tag : No
Command line compressor : C:\Program Files (x86)\Exact Audio Copy\Flac\flac.exe
Additional command line options : -8 -V -T "ARTIST=%artist%" -T "TITLE=%title%" -T "ALBUM=%albumtitle%" -T "DATE=%year%" -T "TRACKNUMBER=%tracknr%" -T "TOTALTRACKS=%numtracks%" -T "GENRE=%genre%" -T "ALBUMARTIST=%albumartist%" -T "ALBUM ARTIST=%albumartist%" -T "COMMENT=EAC Secure Mode, Test & Copy, AccurateRip, FLAC -8" %source%
TOC of the extracted CD
Track | Start | Length | Start sector | End sector
---------------------------------------------------------
1 | 0:00.00 | 16:11.33 | 0 | 72857
2 | 16:11.33 | 15:37.28 | 72858 | 143160
3 | 31:48.61 | 14:55.28 | 143161 | 210313
Track 1
Filename C:\EAC rips\01 - Improv - Box Set.wav
Pre-gap length 0:00:02.00
Peak level 89.2 %
Extraction speed 2.5 X
Track quality 99.9 %
Test CRC 8F41E260
Copy CRC 8F41E260
Accurately ripped (confidence 2) [D5839266] (AR v1)
Copy OK
Track 2
Filename C:\EAC rips\02 - For Grachan.wav
Peak level 89.2 %
Extraction speed 3.4 X
Track quality 100.0 %
Test CRC 50D13FC2
Copy CRC 50D13FC2
Accurately ripped (confidence 2) [91D7FFBB] (AR v1)
Copy OK
Track 3
Filename C:\EAC rips\03 - Patient Explorer - For Frank Lowe.wav
Peak level 89.2 %
Extraction speed 4.0 X
Track quality 100.0 %
Test CRC FBD61F75
Copy CRC FBD61F75
Accurately ripped (confidence 2) [D1C17D15] (AR v1)
Copy OK
All tracks accurately ripped
No errors occurred
End of status report
---- CUETools DB Plugin V2.1.4
[CTDB TOCID: 0qJObJjTA0HQKQIR8veBAJ77OgE-] disk not present in database
Submit result: 0qJObJjTA0HQKQIR8veBAJ77OgE- has been uploaded
==== Log checksum DC66A8ADB8BF4313B29DAFEB30E7C29594C9463DF38E1875BDDE25ADFE871A83 ====
 
Содержание индексной карты (.CUE)
REM GENRE Jazz
REM DATE 2007
REM DISCID 200AF403
REM COMMENT "ExactAudioCopy v1.0b3"
PERFORMER "Steve Swell's Slammin' the Infinite"
TITLE "Live @ the Vision Festival"
FILE "01 - Improv - Box Set.wav" WAVE
TRACK 01 AUDIO
TITLE "Improv / Box Set"
PERFORMER "Steve Swell's Slammin' the Infinite"
INDEX 01 00:00:00
FILE "02 - For Grachan.wav" WAVE
TRACK 02 AUDIO
TITLE "For Grachan"
PERFORMER "Steve Swell's Slammin' the Infinite"
INDEX 01 00:00:00
FILE "03 - Patient Explorer - For Frank Lowe.wav" WAVE
TRACK 03 AUDIO
TITLE "Patient Explorer / For Frank Lowe"
PERFORMER "Steve Swell's Slammin' the Infinite"
INDEX 01 00:00:00
По всем вопросам пишите личное сообщение пользователю M0p94ok.
07:55
171
Нет комментариев. Ваш будет первым!