Вы используете незарегистрированную версию компонента "Вкладки"!

Поиск

(Avant Garde / Free Improvisation) Chad Taylor - Circle Down - 2009, FLAC (image+.cue), lossless

Треклист:
Chad Taylor - Circle Down

Жанр: Avant Garde / Free Improvisation
Год выпуска диска: 2009
Производитель диска: 482 Music 482-1065; USA
Аудио кодек: FLAC
Тип рипа: image+.cue
Битрейт аудио: lossless
Продолжительность: 52:51
Chris Lightcap: bass
Angelica Sanchez: piano
Chad Taylor: drums
1. Box Step
2. Specifica
3. Rock
4. Traipse
5. No Brainer
6. Opal
7. Level
8. Miriam
9. Pablo
10. Pascal
 
EAC Report
Exact Audio Copy V0.99 prebeta 5 from 4. May 2009
EAC extraction logfile from 27. February 2010, 23:00
Chad Taylor / Circle Down
Used drive : hp DVD-RAM GH40L Adapter: 0 ID: 1
Read mode : Secure
Utilize accurate stream : Yes
Defeat audio cache : Yes
Make use of C2 pointers : No
Read offset correction : 667
Overread into Lead-In and Lead-Out : No
Fill up missing offset samples with silence : Yes
Delete leading and trailing silent blocks : No
Null samples used in CRC calculations : Yes
Used interface : Installed external ASPI interface
Used output format : User Defined Encoder
Selected bitrate : 1024 kBit/s
Quality : High
Add ID3 tag : No
Command line compressor : C:\Program Files\Exact Audio Copy\Flac\flac.exe
Additional command line options : -6 -V -T "ARTIST=%a" -T "TITLE=%t" -T "ALBUM=%g" -T "DATE=%y" -T "TRACKNUMBER=%n" -T "GENRE=%m" -T "COMMENT=EAC FLAC -6" %s
TOC of the extracted CD
Track | Start | Length | Start sector | End sector
---------------------------------------------------------
1 | 0:00.00 | 5:59.35 | 0 | 26959
2 | 5:59.35 | 4:38.39 | 26960 | 47848
3 | 10:37.74 | 8:18.64 | 47849 | 85262
4 | 18:56.63 | 5:40.05 | 85263 | 110767
5 | 24:36.68 | 5:15.55 | 110768 | 134447
6 | 29:52.48 | 4:25.70 | 134448 | 154392
7 | 34:18.43 | 4:32.34 | 154393 | 174826
8 | 38:51.02 | 2:36.72 | 174827 | 186598
9 | 41:27.74 | 6:24.53 | 186599 | 215451
10 | 47:52.52 | 4:57.62 | 215452 | 237788
Range status and errors
Selected range
Filename C:\Users\Igor\Music\eac\Chad Taylor - Circle Down.wav
Peak level 100.0 %
Range quality 100.0 %
Test CRC 7A26A867
Copy CRC 7A26A867
Copy OK
No errors occurred
AccurateRip summary
Track 1 not present in database
Track 2 not present in database
Track 3 not present in database
Track 4 not present in database
Track 5 not present in database
Track 6 not present in database
Track 7 not present in database
Track 8 not present in database
Track 9 not present in database
Track 10 not present in database
None of the tracks are present in the AccurateRip database
End of status report

рип собственный
По всем вопросам пишите личное сообщение пользователю M0p94ok.
23:36
129
Нет комментариев. Ваш будет первым!