Вы используете незарегистрированную версию компонента "Вкладки"!

Поиск

(Avant-Garde, Contemporary Jazz, Enja Records) Sylvie Courvoisier - Ocre - 1997, FLAC (tracks+.cue), lossless

(Avant-Garde, Contemporary Jazz, Enja Records) Sylvie Courvoisier - Ocre - 1997, FLAC (tracks+.cue), lossless
Треклист:
Sylvie Courvoisier / Ocre
Жанр: Avant-Garde, Contemporary Jazz, Enja Records
Страна-производитель диска: Germany
Год издания: 1997
Издатель (лейбл): Enja Records
Номер по каталогу: ENJ-9323 2
Аудиокодек: FLAC (*.flac)
Тип рипа: tracks+.cue
Битрейт аудио: lossless
Продолжительность: 58:30
Источник (релизер): Max Monteiro
Наличие сканов в содержимом раздачи: да
Треклист:
01. Gugging (Sylvie Courvoisier) 3:55
02. Anecdote 1 (Pierre Charial) 0:35
03. La Goualante de l’Idiot (Sylvie Courvoisier) 7:01
04. Anecdote 2 (Pierre Charial) 0:50
05. Machine-à-sons (Pierre Charial) 8:39
06. Ensorcelirradiant (Sylvie Courvoisier) 1:43
07. Triton et demi (Sylvie Courvoisier) 6:30
08. Anecdote 3 (Pierre Charial) 1:01
09. Curio in Trivia (In Memory of Hugo Pratt) (Sylvie Courvoisier) 6:46
10. Anecdote 4 (Pierre Charial) 1:16
11. Terre d’Agala (Sylvie Courvoisier) 6:08
12. Viable (Sylvie Courvoisier, Michel Godard) 1:52
13. Paradiso perduto (Sylvie Courvoisier) 3:23
14. Tabular (Pierre Charial) 8:05
15. Gnou-Gnou valse (Pierre Charial) 0:45
Recorded in August 1996 at CMP Studio in Zerkall (Germany).
Pierre Charial – Barrel Organ
Sylvie Courvoisier – Piano, Prepared Piano
Michel Godard – Tuba, Serpent
Tony Overwater – Double Bass
Mark Nauseef – Percussion
 
Лог создания рипа
Exact Audio Copy V1.0 beta 3 from 29. August 2011
EAC extraction logfile from 18. July 2013, 19:14
Sylvie Courvoisier / Ocre
Used drive : SlimtypeeNAU508 5 Adapter: 1 ID: 0
Read mode : Secure
Utilize accurate stream : Yes
Defeat audio cache : Yes
Make use of C2 pointers : No
Read offset correction : 6
Overread into Lead-In and Lead-Out : No
Fill up missing offset samples with silence : Yes
Delete leading and trailing silent blocks : No
Null samples used in CRC calculations : Yes
Used interface : Native Win32 interface for Win NT & 2000
Gap handling : Appended to previous track
Used output format : User Defined Encoder
Selected bitrate : 768 kBit/s
Quality : High
Add ID3 tag : No
Command line compressor : C:\Program Files (x86)\Exact Audio Copy\Flac\flac.exe
Additional command line options : -8 -V -T "ARTIST=%artist%" -T "TITLE=%title%" -T "ALBUM=%albumtitle%" -T "DATE=%year%" -T "TRACKNUMBER=%tracknr%" -T "GENRE=%genre%" -T "PERFORMER=%albuminterpret%" -T "COMPOSER=%composer%" %haslyrics%--tag-from-file=LYRICS="%lyricsfile%"%haslyrics% -T "ALBUMARTIST=%albumartist%" -T "DISCNUMBER=%cdnumber%" -T "TOTALDISCS=%totalcds%" -T "TOTALTRACKS=%numtracks%" -T "COMMENT=%comment%" %source% -o %dest%
TOC of the extracted CD
Track | Start | Length | Start sector | End sector
---------------------------------------------------------
1 | 0:00.00 | 3:54.70 | 0 | 17619
2 | 3:54.70 | 0:35.05 | 17620 | 20249
3 | 4:30.00 | 7:01.03 | 20250 | 51827
4 | 11:31.03 | 0:49.64 | 51828 | 55566
5 | 12:20.67 | 8:39.02 | 55567 | 94493
6 | 20:59.69 | 1:43.05 | 94494 | 102223
7 | 22:42.74 | 6:30.15 | 102224 | 131488
8 | 29:13.14 | 1:00.60 | 131489 | 136048
9 | 30:13.74 | 6:46.35 | 136049 | 166533
10 | 37:00.34 | 1:15.60 | 166534 | 172218
11 | 38:16.19 | 6:07.62 | 172219 | 199805
12 | 44:24.06 | 1:52.13 | 199806 | 208218
13 | 46:16.19 | 3:23.00 | 208219 | 223443
14 | 49:39.19 | 8:05.12 | 223444 | 259830
15 | 57:44.31 | 0:45.34 | 259831 | 263239
Track 1
Filename C:\EAC rips\01 - Gugging.wav
Pre-gap length 0:00:02.00
Peak level 98.8 %
Extraction speed 2.1 X
Track quality 100.0 %
Test CRC E513C8D8
Copy CRC E513C8D8
Accurately ripped (confidence 4) [24ACFD87] (AR v1)
Copy OK
Track 2
Filename C:\EAC rips\02 - Anecdote 1.wav
Pre-gap length 0:00:03.63
Peak level 98.8 %
Extraction speed 1.2 X
Track quality 100.0 %
Test CRC 16EA8D39
Copy CRC 16EA8D39
Accurately ripped (confidence 4) [207D0C6B] (AR v1)
Copy OK
Track 3
Filename C:\EAC rips\03 - La Goualante de l'Idiot.wav
Pre-gap length 0:00:03.40
Peak level 98.8 %
Extraction speed 2.6 X
Track quality 100.0 %
Test CRC BC9D4FA0
Copy CRC BC9D4FA0
Accurately ripped (confidence 4) [EC399A24] (AR v1)
Copy OK
Track 4
Filename C:\EAC rips\04 - Anecdote 2.wav
Pre-gap length 0:00:05.01
Peak level 98.8 %
Extraction speed 1.7 X
Track quality 100.0 %
Test CRC C9B8F5BE
Copy CRC C9B8F5BE
Accurately ripped (confidence 4) [9831B263] (AR v1)
Copy OK
Track 5
Filename C:\EAC rips\05 - Machines-à-sons.wav
Pre-gap length 0:00:04.69
Peak level 98.8 %
Extraction speed 3.1 X
Track quality 100.0 %
Test CRC 2C04CF98
Copy CRC 2C04CF98
Accurately ripped (confidence 4) [8AE06676] (AR v1)
Copy OK
Track 6
Filename C:\EAC rips\06 - Ensorcelirradiant.wav
Pre-gap length 0:00:06.27
Peak level 91.0 %
Extraction speed 2.6 X
Track quality 100.0 %
Test CRC FBAC67E0
Copy CRC FBAC67E0
Accurately ripped (confidence 4) [0184D7D4] (AR v1)
Copy OK
Track 7
Filename C:\EAC rips\07 - Triton et demi.wav
Pre-gap length 0:00:04.63
Peak level 100.0 %
Extraction speed 3.4 X
Track quality 100.0 %
Test CRC 755B6004
Copy CRC 755B6004
Accurately ripped (confidence 4) [D05B740F] (AR v1)
Copy OK
Track 8
Filename C:\EAC rips\08 - Anecdote 3.wav
Pre-gap length 0:00:06.14
Peak level 98.8 %
Extraction speed 2.4 X
Track quality 100.0 %
Test CRC 870873C4
Copy CRC 870873C4
Accurately ripped (confidence 4) [53904674] (AR v1)
Copy OK
Track 9
Filename C:\EAC rips\09 - Curio in Trivia (In memory of Hugo Pratt).wav
Pre-gap length 0:00:05.16
Peak level 100.0 %
Extraction speed 3.8 X
Track quality 100.0 %
Test CRC 0C7ED796
Copy CRC 0C7ED796
Accurately ripped (confidence 4) [DA32DCEE] (AR v1)
Copy OK
Track 10
Filename C:\EAC rips\10 - Anecdote 4.wav
Pre-gap length 0:00:06.24
Peak level 98.8 %
Extraction speed 2.8 X
Track quality 100.0 %
Test CRC F7F5534C
Copy CRC F7F5534C
Accurately ripped (confidence 4) [6B43DD0B] (AR v1)
Copy OK
Track 11
Filename C:\EAC rips\11 - Terre d'Agala.wav
Pre-gap length 0:00:07.16
Peak level 98.8 %
Extraction speed 3.5 X
Track quality 99.9 %
Test CRC B014208F
Copy CRC B014208F
Accurately ripped (confidence 4) [D56FE446] (AR v1)
Copy OK
Track 12
Filename C:\EAC rips\12 - Viable.wav
Pre-gap length 0:00:06.52
Peak level 99.2 %
Extraction speed 3.4 X
Track quality 100.0 %
Test CRC 4F772694
Copy CRC 4F772694
Accurately ripped (confidence 4) [17940B1D] (AR v1)
Copy OK
Track 13
Filename C:\EAC rips\13 - Paradiso perduto.wav
Pre-gap length 0:00:06.09
Peak level 98.8 %
Extraction speed 3.9 X
Track quality 100.0 %
Test CRC 3F66A201
Copy CRC 3F66A201
Accurately ripped (confidence 4) [0C66B229] (AR v1)
Copy OK
Track 14
Filename C:\EAC rips\14 - Tabular.wav
Pre-gap length 0:00:06.08
Peak level 98.8 %
Extraction speed 4.4 X
Track quality 100.0 %
Test CRC 23754DE1
Copy CRC 23754DE1
Accurately ripped (confidence 4) [8A49D497] (AR v1)
Copy OK
Track 15
Filename C:\EAC rips\15 - Gnou-Gnou valse.wav
Pre-gap length 0:00:08.67
Peak level 100.0 %
Extraction speed 2.7 X
Track quality 100.0 %
Test CRC 3F6C129C
Copy CRC 3F6C129C
Accurately ripped (confidence 4) [89340D4C] (AR v1)
Copy OK
All tracks accurately ripped
No errors occurred
End of status report
---- CUETools DB Plugin V2.1.4
[CTDB TOCID: Ik.x_tsj.FG2FsVDzxTDYpze.9Q-] found
Submit result: Ik.x_tsj.FG2FsVDzxTDYpze.9Q- has been confirmed
Track | CTDB Status
1 | (2/2) Accurately ripped
2 | (2/2) Accurately ripped
3 | (2/2) Accurately ripped
4 | (2/2) Accurately ripped
5 | (2/2) Accurately ripped
6 | (2/2) Accurately ripped
7 | (2/2) Accurately ripped
8 | (2/2) Accurately ripped
9 | (2/2) Accurately ripped
10 | (2/2) Accurately ripped
11 | (2/2) Accurately ripped
12 | (2/2) Accurately ripped
13 | (2/2) Accurately ripped
14 | (2/2) Accurately ripped
15 | (2/2) Accurately ripped
==== Log checksum 21E06F198598A8BC0F1B015F01174E75480812DD09867EEBD833165DE2CD4D2E ====
 
Содержание индексной карты (.CUE)
REM GENRE Jazz
REM DATE 1997
REM DISCID E00DB50F
REM COMMENT "ExactAudioCopy v1.0b3"
PERFORMER "Sylvie Courvoisier"
TITLE "Ocre"
FILE "01 - Gugging.wav" WAVE
TRACK 01 AUDIO
TITLE "Gugging"
PERFORMER "Sylvie Courvoisier"
INDEX 01 00:00:00
TRACK 02 AUDIO
TITLE "Anecdote 1"
PERFORMER "Sylvie Courvoisier"
INDEX 00 03:51:07
FILE "02 - Anecdote 1.wav" WAVE
INDEX 01 00:00:00
TRACK 03 AUDIO
TITLE "La Goualante de l'Idiot"
PERFORMER "Sylvie Courvoisier"
INDEX 00 00:31:40
FILE "03 - La Goualante de l'Idiot.wav" WAVE
INDEX 01 00:00:00
TRACK 04 AUDIO
TITLE "Anecdote 2"
PERFORMER "Sylvie Courvoisier"
INDEX 00 06:56:02
FILE "04 - Anecdote 2.wav" WAVE
INDEX 01 00:00:00
TRACK 05 AUDIO
TITLE "Machines-à-sons"
PERFORMER "Sylvie Courvoisier"
INDEX 00 00:44:70
FILE "05 - Machines-à-sons.wav" WAVE
INDEX 01 00:00:00
TRACK 06 AUDIO
TITLE "Ensorcelirradiant"
PERFORMER "Sylvie Courvoisier"
INDEX 00 08:32:50
FILE "06 - Ensorcelirradiant.wav" WAVE
INDEX 01 00:00:00
TRACK 07 AUDIO
TITLE "Triton et demi"
PERFORMER "Sylvie Courvoisier"
INDEX 00 01:38:17
FILE "07 - Triton et demi.wav" WAVE
INDEX 01 00:00:00
TRACK 08 AUDIO
TITLE "Anecdote 3"
PERFORMER "Sylvie Courvoisier"
INDEX 00 06:24:01
FILE "08 - Anecdote 3.wav" WAVE
INDEX 01 00:00:00
TRACK 09 AUDIO
TITLE "Curio in Trivia (In memory of Hugo Pratt)"
PERFORMER "Sylvie Courvoisier"
INDEX 00 00:55:44
FILE "09 - Curio in Trivia (In memory of Hugo Pratt).wav" WAVE
INDEX 01 00:00:00
TRACK 10 AUDIO
TITLE "Anecdote 4"
PERFORMER "Sylvie Courvoisier"
INDEX 00 06:40:11
FILE "10 - Anecdote 4.wav" WAVE
INDEX 01 00:00:00
TRACK 11 AUDIO
TITLE "Terre d'Agala"
PERFORMER "Sylvie Courvoisier"
INDEX 00 01:08:44
FILE "11 - Terre d'Agala.wav" WAVE
INDEX 01 00:00:00
TRACK 12 AUDIO
TITLE "Viable"
PERFORMER "Sylvie Courvoisier"
INDEX 00 06:01:10
FILE "12 - Viable.wav" WAVE
INDEX 01 00:00:00
TRACK 13 AUDIO
TITLE "Paradiso perduto"
PERFORMER "Sylvie Courvoisier"
INDEX 00 01:46:04
FILE "13 - Paradiso perduto.wav" WAVE
INDEX 01 00:00:00
TRACK 14 AUDIO
TITLE "Tabular"
PERFORMER "Sylvie Courvoisier"
INDEX 00 03:16:67
FILE "14 - Tabular.wav" WAVE
INDEX 01 00:00:00
TRACK 15 AUDIO
TITLE "Gnou-Gnou valse"
PERFORMER "Sylvie Courvoisier"
INDEX 00 07:56:20
FILE "15 - Gnou-Gnou valse.wav" WAVE
INDEX 01 00:00:00
По всем вопросам пишите личное сообщение пользователю M0p94ok.
16:44
178
Нет комментариев. Ваш будет первым!