Вы используете незарегистрированную версию компонента "Вкладки"!

Поиск

(Avant Garde & Free Jazz) Daniel Carter/Ravi Padmanabha - Nivesana - 2008, FLAC (tracks+.cue) lossless

Треклист:
Daniel Carter- Ravi Padmanabha ~ Nivesana
Жанр: Avant Garde & Free Jazz
Страна-производитель диска: USA
Год издания диска: 2008
Издатель (лейбл): Epoch Music
Номер по каталогу: n.n.
Аудио кодек: FLAC (*.flac)
Тип рипа: tracks+.cue
Битрейт аудио: lossless
Продолжительность: 1:00:08
Источник (релизер): собственный рип с оригинального диска.
Наличие сканов в содержимом раздачи: да
Треклист:
01. Nivesana 7:28
02. Vasana 4:57
03. Vines stem to Flowers 2:45
04. Maha Supreme/TaKaDinNaTaKa 20:59
05. The Jewel is in the Lotus 14:09
06. Remembrance 6:10
07. Story out of Print 3:36
 
Лог создания рипа
Exact Audio Copy V0.99 prebeta 5 from 4. May 2009
EAC extraction logfile from 23. February 2011, 13:51
Daniel Carter & Ravi Padmanabha / Nivesana
Used drive : TSSTcorpCDDVDW SH-S222A Adapter: 1 ID: 0
Read mode : Secure
Utilize accurate stream : Yes
Defeat audio cache : Yes
Make use of C2 pointers : No
Read offset correction : 6
Overread into Lead-In and Lead-Out : No
Fill up missing offset samples with silence : Yes
Delete leading and trailing silent blocks : No
Null samples used in CRC calculations : Yes
Used interface : Installed external ASPI interface
Gap handling : Appended to previous track
Used output format : User Defined Encoder
Selected bitrate : 768 kBit/s
Quality : High
Add ID3 tag : No
Command line compressor : C:\Tool\Compress\FLAC\flac.exe
Additional command line options : -V -8 -T "ARTIST=%a" -T "TITLE=%t" -T "ALBUM=%g" -T "TRACKNUMBER=%n" -T "GENRE=%m" %s
TOC of the extracted CD
Track | Start | Length | Start sector | End sector
---------------------------------------------------------
1 | 0:00.00 | 7:28.60 | 0 | 33659
2 | 7:28.60 | 4:57.52 | 33660 | 55986
3 | 12:26.37 | 2:45.74 | 55987 | 68435
4 | 15:12.36 | 20:59.59 | 68436 | 162919
5 | 36:12.20 | 14:09.00 | 162920 | 226594
6 | 50:21.20 | 6:10.08 | 226595 | 254352
7 | 56:31.28 | 3:36.50 | 254353 | 270602
Track 1
Filename C:\! UPLOAD\Daniel Carter & Ravi Radmanabha - Nivesana (2005) [FLAC]\01 - Nivesana.wav
Pre-gap length 0:00:02.00
Peak level 48.2 %
Track quality 100.0 %
Test CRC EE2DE3EE
Copy CRC EE2DE3EE
Track not present in AccurateRip database
Copy OK
Track 2
Filename C:\! UPLOAD\Daniel Carter & Ravi Radmanabha - Nivesana (2005) [FLAC]\02 - Vasana.wav
Peak level 100.0 %
Track quality 100.0 %
Test CRC 6C3D2667
Copy CRC 6C3D2667
Track not present in AccurateRip database
Copy OK
Track 3
Filename C:\! UPLOAD\Daniel Carter & Ravi Radmanabha - Nivesana (2005) [FLAC]\03 - Vines stem to Flowers.wav
Peak level 100.0 %
Track quality 100.0 %
Test CRC 3F3172DB
Copy CRC 3F3172DB
Track not present in AccurateRip database
Copy OK
Track 4
Filename C:\! UPLOAD\Daniel Carter & Ravi Radmanabha - Nivesana (2005) [FLAC]\04 - Maha Supreme , TaKaDinNaTaKa.wav
Peak level 100.0 %
Track quality 100.0 %
Test CRC E89A8A50
Copy CRC E89A8A50
Track not present in AccurateRip database
Copy OK
Track 5
Filename C:\! UPLOAD\Daniel Carter & Ravi Radmanabha - Nivesana (2005) [FLAC]\05 - The Jewel is in the Lotus.wav
Peak level 95.5 %
Track quality 100.0 %
Test CRC E70E594C
Copy CRC E70E594C
Track not present in AccurateRip database
Copy OK
Track 6
Filename C:\! UPLOAD\Daniel Carter & Ravi Radmanabha - Nivesana (2005) [FLAC]\06 - Remembrance.wav
Peak level 28.8 %
Track quality 100.0 %
Test CRC A130CC74
Copy CRC A130CC74
Track not present in AccurateRip database
Copy OK
Track 7
Filename C:\! UPLOAD\Daniel Carter & Ravi Radmanabha - Nivesana (2005) [FLAC]\07 - Story out of print.wav
Peak level 33.8 %
Track quality 100.0 %
Test CRC 66E1DB9B
Copy CRC 66E1DB9B
Track not present in AccurateRip database
Copy OK
None of the tracks are present in the AccurateRip database
No errors occurred
End of status report
 
Содержание индексной карты (.CUE)
REM GENRE Jazz
REM DATE 2005
REM DISCID 540E1807
REM COMMENT "ExactAudioCopy v0.99pb5"
PERFORMER "Daniel Carter & Ravi Padmanabha"
TITLE "Nivesana"
FILE "01 - Nivesana.wav" WAVE
TRACK 01 AUDIO
TITLE "Nivesana"
PERFORMER "Daniel Carter & Ravi Padmanabha"
INDEX 01 00:00:00
FILE "02 - Vasana.wav" WAVE
TRACK 02 AUDIO
TITLE "Vasana"
PERFORMER "Daniel Carter & Ravi Padmanabha"
INDEX 01 00:00:00
FILE "03 - Vines stem to Flowers.wav" WAVE
TRACK 03 AUDIO
TITLE "Vines stem to Flowers"
PERFORMER "Daniel Carter & Ravi Padmanabha"
INDEX 01 00:00:00
FILE "04 - Maha Supreme , TaKaDinNaTaKa.wav" WAVE
TRACK 04 AUDIO
TITLE "Maha Supreme / TaKaDinNaTaKa"
PERFORMER "Daniel Carter & Ravi Padmanabha"
INDEX 01 00:00:00
FILE "05 - The Jewel is in the Lotus.wav" WAVE
TRACK 05 AUDIO
TITLE "The Jewel is in the Lotus"
PERFORMER "Daniel Carter & Ravi Padmanabha"
INDEX 01 00:00:00
FILE "06 - Remembrance.wav" WAVE
TRACK 06 AUDIO
TITLE "Remembrance"
PERFORMER "Daniel Carter & Ravi Padmanabha"
INDEX 01 00:00:00
FILE "07 - Story out of print.wav" WAVE
TRACK 07 AUDIO
TITLE "Story out of print"
PERFORMER "Daniel Carter & Ravi Padmanabha"
INDEX 01 00:00:00
Доп. информация:
Recorded 10/2005 NYC
 
Об исполнителе (группе)
I am sorry, but I keep finding music of exceptional quality. This is one more : absolutely marvelous and hard to find. Daniel Carter is a trumpet player, sax player and flautist, who is, next to his own productions (worth checking out), also known for his collaborations in high calibre free jazz bands such as "Other Dimensions In Music" and "Test". This album is different, and at the beginning very comparable to Compassion the 2006 album by Wadada Leo Smith and Adam Rudolph. If you like the latter, you'll enjoy this one too : the combination of instruments and the angle of appraoch are very similar : free improv of horn and percussion. The percussionist here is the in the US residing Indian Ravi Padmanabha, whom I did not know, and who brings lots of power to this CD. His percussion is sometimes used as background sound (placed in loops sometimes), for the slower pieces, rather than as rhythmic support. Daniel Carter's playing is gorgeous, especially on trumpet, with long soft meditating tones, without real melody yet without being dissonant either. The pièce-de-résistance is the long high energy work-out on "Maka Supreme/Takadinkataka", where on a repetitive Indian vocal, an electrifying duet of sax and drums undulates over softer passages to high intensity pyrotechnics and back to softer moods. Above all, this is great, authentic music with its own voice and a very tight logic kept throughout the album, despite the variation of instruments, tempi and moods. Highly recommended!
 
Об альбоме (сборнике)
Nivesana is a beautiful CD. A seamless integration of Indian classical music, avant garde jazz, and electronic wizardry, the CD is a collaboration between legendary multi-instrumentalist Daniel Carter and percussionist Ravi Padmanabha. "Nivesana" is a Pali word with multiple meanings: it means entering, home, settling, and it also means attachment, clinging to. Part of the beauty of the CD is the way Carter and Padmanabha explore all sides of the word: the music certainly has a deep, centered quality, and yet it's also haunting, urgent with a sense of mystery and occasional melancholy.
Whenever Carter appears on a CD, there's always a wealth of sound as he draws on his mastery of saxophones, trumpet, flute, and clarinet. Combined with Padmanabha's repertoire—drums, cymbals, tabla, moorsing (jaw harp), percussion, and electronic skill—the possibilities are wide open, and the resulting music multi-layered and rich. The seven songs on Nivesana flow into each other effortlessly, creating a cohesive mood and also a sense of journey. This is one of those wonderful CDs that provide an inspiring accompaniment to creating art, whether it's writing, painting, movement, or just plain daydreaming.
Carter can hardly be praised enough; he's a master of creative music, and has played with everyone from Sun Ra to Medeski, Martin, and Wood to the No Neck Blues Band. Padmanabha is clearly a musician to watch. He's paid his dues in both the world of Indian classical music and avant-garde jazz, and he's at ease taking the old forms and infusing them with a fresh, inventive energy. Nivesana is the happy result of two large talents listening to one another closely, and with any luck this duo will release more music in future days.
 
Состав
Daniel Carter - saxophones, trumpet, flute, clarinet
Ravi Padmanabha - drums, cymbals, tabla, voice, moorsing, percussion, live loops
По всем вопросам пишите личное сообщение пользователю M0p94ok.
09:07
167
Нет комментариев. Ваш будет первым!