Поиск

(Afrobeat, Jazz-Funk, Soul Jazz, World) [CD] The Souljazz Orchestra - Resistance - 2015, FLAC (tracks+.cue), lossless

(Afrobeat, Jazz-Funk, Soul Jazz, World) [CD] The Souljazz Orchestra - Resistance - 2015, FLAC (tracks+.cue), lossless
Треклист:
The Souljazz Orchestra / Resistance
Жанр: Afrobeat, Jazz-Funk, Soul Jazz, World
Носитель: CD
Год издания: 2015
Издатель (лейбл): Strut
Страна исполнителя (группы): Canada
Аудиокодек: FLAC (*.flac)
Тип рипа: tracks+.cue
Битрейт аудио: lossless
Продолжительность: 42:23
Источник (релизер): what,cd
Наличие сканов в содержимом раздачи: нет
Треклист:
1.Greet The Dawn
2.Shock And Awe 03:18
3.Courage
4.As The World Turns
5.Life Is What You Make It
6.Bull's Eye
7.Soleil Couchant
8.Ware Wa
9.Kossa Kossa
10.It's Gonna Rain
 
Лог создания рипа
CUERipper v2.1.5 Copyright (C) 2008-13 Grigory Chudov
EAC extraction logfile from 7. August 2015, 15:43
The Souljazz Orchestra / Resistance
Used drive : hp CDDVDW SU-208FB Adapter: 1 ID: 0
Read mode : Secure
Utilize accurate stream : Yes
Defeat audio cache : Yes
Make use of C2 pointers : No
Read offset correction : 0
Overread into Lead-In and Lead-Out : No
Fill up missing offset samples with silence : Yes
Delete leading and trailing silent blocks : No
Null samples used in CRC calculations : Yes
Used interface : Native Win32 interface for Win NT & 2000
Gap handling : Appended to previous track
Used output format : Internal WAV Routines
Sample format : 44.100 Hz; 16 Bit; Stereo
TOC of the extracted CD
Track | Start | Length | Start sector | End sector
---------------------------------------------------------
1 | 0:00.00 | 4:50.33 | 0 | 21782
2 | 4:50.33 | 3:18.00 | 21783 | 36632
3 | 8:08.33 | 4:04.38 | 36633 | 54970
4 | 12:12.71 | 4:13.00 | 54971 | 73945
5 | 16:25.71 | 4:09.37 | 73946 | 92657
6 | 20:35.33 | 4:54.38 | 92658 | 114745
7 | 25:29.71 | 3:45.71 | 114746 | 131691
8 | 29:15.67 | 3:55.40 | 131692 | 149356
9 | 33:11.32 | 4:08.00 | 149357 | 167956
10 | 37:19.32 | 5:07.29 | 167957 | 191010
Track 1
Filename C:\Users\RantNRave\Music\The Souljazz Orchestra\01. Greet the Dawn.wav
Pre-gap length 0:00:02.00
Peak level 46.6 %
Track quality 100.0 %
Copy CRC 266EF73F
Track not present in AccurateRip database
Copy OK
Track 2
Filename C:\Users\RantNRave\Music\The Souljazz Orchestra\02. Shock and Awe.wav
Peak level 49.6 %
Track quality 100.0 %
Copy CRC D8E11F29
Track not present in AccurateRip database
Copy OK
Track 3
Filename C:\Users\RantNRave\Music\The Souljazz Orchestra\03. Courage.wav
Peak level 43.4 %
Track quality 100.0 %
Copy CRC E0436DA5
Track not present in AccurateRip database
Copy OK
Track 4
Filename C:\Users\RantNRave\Music\The Souljazz Orchestra\04. As the World Turns.wav
Peak level 47.5 %
Track quality 100.0 %
Copy CRC F6BD1CE6
Track not present in AccurateRip database
Copy OK
Track 5
Filename C:\Users\RantNRave\Music\The Souljazz Orchestra\05. Life is What You Make It.wav
Peak level 42.4 %
Track quality 100.0 %
Copy CRC CD022DBF
Track not present in AccurateRip database
Copy OK
Track 6
Filename C:\Users\RantNRave\Music\The Souljazz Orchestra\06. Bull's Eye.wav
Peak level 49.3 %
Track quality 100.0 %
Copy CRC 653EC27F
Track not present in AccurateRip database
Copy OK
Track 7
Filename C:\Users\RantNRave\Music\The Souljazz Orchestra\07. Soleil Couchant.wav
Peak level 43.0 %
Track quality 100.0 %
Copy CRC B2E0903B
Track not present in AccurateRip database
Copy OK
Track 8
Filename C:\Users\RantNRave\Music\The Souljazz Orchestra\08. Ware Wa.wav
Peak level 51.4 %
Track quality 100.0 %
Copy CRC CA21A01A
Track not present in AccurateRip database
Copy OK
Track 9
Filename C:\Users\RantNRave\Music\The Souljazz Orchestra\09. Kossa Kossa.wav
Peak level 53.7 %
Track quality 100.0 %
Copy CRC 8E917014
Track not present in AccurateRip database
Copy OK
Track 10
Filename C:\Users\RantNRave\Music\The Souljazz Orchestra\10. It's Gonna Rain.wav
Peak level 45.6 %
Track quality 100.0 %
Copy CRC D9C828EC
Track not present in AccurateRip database
Copy OK
None of the tracks are present in the AccurateRip database
No errors occurred
End of status report
 
Содержание индексной карты (.CUE)
REM DISCID 8C09F20A
PERFORMER "The Souljazz Orchestra"
TITLE "Resistance"
REM DATE 2015
REM GENRE "World"
REM COMMENT "CUERipper v2.1.5 Copyright (C) 2008-13 Grigory Chudov"
FILE "01. Greet the Dawn.flac" WAVE
TRACK 01 AUDIO
PERFORMER "The Souljazz Orchestra"
TITLE "Greet the Dawn"
INDEX 01 00:00:00
FILE "02. Shock and Awe.flac" WAVE
TRACK 02 AUDIO
PERFORMER "The Souljazz Orchestra"
TITLE "Shock and Awe"
INDEX 01 00:00:00
FILE "03. Courage.flac" WAVE
TRACK 03 AUDIO
PERFORMER "The Souljazz Orchestra"
TITLE "Courage"
INDEX 01 00:00:00
FILE "04. As the World Turns.flac" WAVE
TRACK 04 AUDIO
PERFORMER "The Souljazz Orchestra"
TITLE "As the World Turns"
INDEX 01 00:00:00
FILE "05. Life is What You Make It.flac" WAVE
TRACK 05 AUDIO
PERFORMER "The Souljazz Orchestra"
TITLE "Life is What You Make It"
INDEX 01 00:00:00
FILE "06. Bull's Eye.flac" WAVE
TRACK 06 AUDIO
PERFORMER "The Souljazz Orchestra"
TITLE "Bull's Eye"
INDEX 01 00:00:00
FILE "07. Soleil Couchant.flac" WAVE
TRACK 07 AUDIO
PERFORMER "The Souljazz Orchestra"
TITLE "Soleil Couchant"
INDEX 01 00:00:00
FILE "08. Ware Wa.flac" WAVE
TRACK 08 AUDIO
PERFORMER "The Souljazz Orchestra"
TITLE "Ware Wa"
INDEX 01 00:00:00
FILE "09. Kossa Kossa.flac" WAVE
TRACK 09 AUDIO
PERFORMER "The Souljazz Orchestra"
TITLE "Kossa Kossa"
INDEX 01 00:00:00
FILE "10. It's Gonna Rain.flac" WAVE
TRACK 10 AUDIO
PERFORMER "The Souljazz Orchestra"
TITLE "It's Gonna Rain"
INDEX 01 00:00:00
Приватный:
Нет (DHT включён)
Размер:
231.97 Мб (243,242,427 байт) » файлов: 13
Участники:
0 раздают, 0 качают (0 участников всего)
Внешние участники:
3 раздают, 1 качают (4 участников всего) [ Обновить ]
Есть вопросы - пишите личное сообщение пользователю M0p94ok.
07:31
36
Нет комментариев. Ваш будет первым!