Поиск

2021 Stefano Di Battista - Morricone Stories {Warner Music} [24-48]

2021 Stefano Di Battista - Morricone Stories {Warner Music} [24-48]
Место записи:
Studios Ferber, Paris, France
Дата издания диска:
2 апреля 2021
Издатель (лейбл):
Номер по каталогу:
190295044244
Битрейт аудио:
lossless
Доп. инфо:

"Morricone Stories" - студийный альбом 2021 года, посвященный творчеству Эннио Морриконе, джазового саксофониста Стефано Ди Баттиста с участием джаз ансамбля. Альбом содержит двенадцать джазовых интерпретаций на музыку из известных фильмов, и включает раннее неиздававшийся трек "Flora".

Стефано Ди Баттиста - итальянский джазовый саксофонист, вокалист, играющий на альт-саксофоне и сопрано-саксофоне. Он сотрудничал с такими звёздами, как: Даниель Хьюмэйр, Джимми Кобб, Уолтер Букер, Нэт Эддерли. Первый сольный альбом музыканта, "Volare", был записан в 1997 году на лейбле Label Bleu. Альбом был очень успешным и его номинировали на премию Victories de la Musique, а Стефано был номинирован в номинации "Музыкант года" в Италии. В 1998 году Стефано подписал контракт с джазовым лейблом Blue Note, здесь же был записан второй сольный альбом, A "Prima Vista", который получил большое признание в Америке. Барабанщиком на этом альбоме был Элвин Джонс (игравший вместе с Джоном Колтрейном). Стефано продолжил записи дисков на лейбле. В 2000 году вышел одноимённый релиз музыканта под названием "Stefano Di Battista".

В 2002 году итальянские музыканты Gabin пригласили Стефано Ди Баттиста на запись трёх песен для альбома "Gabin". Стефано Ди Батиста сыграл саксофонные партии в композициях "Doo Uap, Doo Uap, Doo Uap", "Urban Night" и "La Maison (Di Battista’s Dream)". Выпустив несколько альбомов и обосновав джазовую арену, Ди Батиста источает бурную и лиричную энергию. Один из его релизов посвящён творчеству Чарли Паркера. Стефано Ди Батиста уверенно завоёвывает признание лучшего европейского артиста джазовой сцены.

• Формат записи | Источник записи: [TR24][OF]
• Наличие водяных знаков: Нет
• Год издания релиза: 2021
• Продолжительность: 00:49:36
• Источник: internet
• WEB релиз: ссылка
• Контейнер: FLAC (*.flac)
• Тип рипа: tracks
• Разрядность: 24/48
• Формат: PCM
• Количество каналов: 2.0
• Наличие сканов: front & booklet

Лог проверки качества
foobar2000 1.4.2 / Dynamic Range Meter 1.1.1
log date: 2021-04-04 08:17:21

--------------------------------------------------------------------------------
Analyzed: Stefano Di Battista / Morricone Stories
--------------------------------------------------------------------------------

DR         Peak         RMS     Duration Track
--------------------------------------------------------------------------------
DR9       -0.30 dB   -10.62 dB      3:59 01-Cosa avete fatto a Solange (From "What Have You Done to Solange?")
DR8       -0.30 dB   -10.55 dB      3:23 02-Peur sur la ville (From "Fear over the City")
DR8       -0.30 dB   -10.41 dB      4:21 03-La cosa buffa
DR8       -0.30 dB    -9.68 dB      4:46 04-Verushka
DR9       -0.30 dB   -12.17 dB      3:43 05-Deborah's Theme (From "Once Upon a Time in America")
DR9       -0.30 dB   -11.26 dB      3:55 06-Metti, una sera a cena
DR8       -0.30 dB   -10.41 dB      4:57 07-Apertura della caccia (From "1900")
DR7       -0.30 dB    -9.95 dB      4:16 08-Il grande silenzio (From "The Great Silence")
DR7       -0.30 dB    -9.24 dB      2:35 09-Flora
DR8       -0.30 dB   -11.07 dB      6:40 10-La donna della domenica (From "Sunday Woman")
DR7       -0.30 dB    -9.98 dB      3:30 11-Gabriel’s Oboe (From "The Mission")
DR8       -0.30 dB   -10.04 dB      3:32 12-The Good, the Bad and the Ugly
--------------------------------------------------------------------------------

Number of tracks:  12
Official DR value: DR8

Samplerate:        48000 Hz
Channels:          2
Bits per sample:   24
Bitrate:           1783 kbps
Codec:             FLAC
================================================================================
No seeders - write personal message to M0p94ok. Any questions - support@pro-jazz.com.
Нет сидеров - пишите в личку M0p94ok. Есть вопросы - support@pro-jazz.com
10:58
47
Нет комментариев. Ваш будет первым!