Поиск

2021 Eyolf Dale - Being {Edition} [24-96]

2021 Eyolf Dale - Being {Edition} [24-96]
Стили:
Дата издания диска:
5 феврале 2021
Носитель:
WEB
Формат:
PCM
Тип рипа:
tracks
Контейнер:
FLAC (*.flac)
Количество каналов:
2.0
Разрядность/ЧД:
24/96
Битрейт аудио:
lossless
Время звучания:
00:42:19
Наличие сканов:
только обложка
Наличие водяных знаков:
нет
Страна-производитель диска (релиза):
USA
Релизёр (источник):
M0p94ok

Треклист:

1. The Lonely Banker  05:15
2. Northern Brewer  04:55
3. Behind 315  05:05
4. Forward from here  04:33
5. The Pondering  06:20
6. Fast forward, peace of mind  04:48
7. Ace  05:44
8. How could it be?  05:39

Лог проверки качества
foobar2000 1.6.2 / Dynamic Range Meter 1.1.1
log date: 2021-05-21 10:06:07

--------------------------------------------------------------------------------
Analyzed: Eyolf Dale / Being
--------------------------------------------------------------------------------

DR         Peak         RMS     Duration Track
--------------------------------------------------------------------------------
DR11      -0.90 dB   -15.87 dB      5:15 01-The Lonely Banker
DR11      -0.86 dB   -13.99 dB      4:55 02-Northern Brewer
DR10      -0.91 dB   -15.93 dB      5:05 03-Behind 315
DR11      -0.86 dB   -15.43 dB      4:33 04-Forward from here
DR10      -0.88 dB   -16.64 dB      6:20 05-The Pondering
DR10      -0.90 dB   -15.46 dB      4:49 06-Fast forward, peace of mind
DR12      -0.90 dB   -16.44 dB      5:45 07-Ace
DR13      -0.93 dB   -17.09 dB      5:39 08-How could it be?
--------------------------------------------------------------------------------

Number of tracks:  8
Official DR value: DR11

Samplerate:        96000 Hz
Channels:          2
Bits per sample:   24
Bitrate:           2464 kbps
Codec:             FLAC
================================================================================
Приватный:
Нет (DHT включён)
Размер:
771.21 Мб (808,670,987 байт) » файлов: 11
Участники:
2 раздают, 0 качают (2 участников всего)
Внешние участники:
--- [ Обновить ]
No seeders - write personal message to M0p94ok. Нет сидеров - пишите в личку M0p94ok.
10:34
24
Нет комментариев. Ваш будет первым!