Поиск

2021 Ethan Iverson & UJO - Bud Powell in the 21st Century {Sunnyside SSC1619} [CD]

2021 Ethan Iverson & UJO - Bud Powell in the 21st Century {Sunnyside SSC1619} [CD]
Стили:
Дата записи диска:
29 декабря - 31 декабря 2018
Место записи:
Live at Teatro Mancinelli, Orvieto, Italy
Дата издания диска:
29 января 2021
Издатель (лейбл):
Номер по каталогу:
SSC1619
Носитель:
CD
Тип рипа:
tracks+.cue
Аудиокодек:
FLAC (*.flac)
Битрейт аудио:
lossless
Время звучания:
00:59:47
Наличие сканов:
да
Страна-производитель диска (релиза):
USA / Italy

Треклист:

01. Bud Powell in the 21st Century: I. Choral (02:33)
02. Bud Powell in the 21st Century: II. Continuity (04:13)
03. Celia (05:10)
04. Tempus Fugit (05:02)
05. Five Simple Spells: I. Chorale (01:11)
06. Bouncing with Bud (04:00)
07. Five Simple Spells: II. Waltz (00:53)
08. Wail (03:02)
09. Five Simple Spells: III. Chorale (00:52)
10. Dance of the Infidels (02:49)
11. Five Simple Spells: V. Moderato (01:15)
12. 52nd Street Theme (03:50)
13. Five Simple Spells: V. Ballad (01:41)
14. I'll Keep Loving You (05:46)
15. Nobile Paradiso (11:10)
16. Un Poco Loco (06:20)

Состав:
  • Ingrid Jensen — trumpet
  • Dayna Stephens — tenor saxophone
  • Ethan Iverson — piano, conduction (Tracks 1 & 16)
  • Ben Street — bass
  • Lewis Nash — drums
  • Giovanni Hoffer — French horn (Track 14)
  • Daniele Tittarelli — alto saxophone
  • Manuele Morbidini — alto saxophone, conduction (Tracks 5, 7, 9, 11, 13, 14)
  • Pedro Spallati — tenor saxophone
  • Rossano Emili — baritone saxophone
  • Mirco Rubegni — trumpet
  • Francesco Lento — trumpet
  • Francesco Fratini — trumpet
  • Massimo Morganti — trombone
  • Roberto Rossi — trombone
  • Federico Pierantoni — trombone
  • Rosario Liberti — bass trombone
Лог создания рипа
Exact Audio Copy V1.3 from 2. September 2016
EAC extraction logfile from 28. May 2021, 20:12
Ethan Iverson; Umbria Jazz Orchestra / Bud Powell In The 21st Century
Used drive  : TSSTcorpCDDVDW TS-H653N   Adapter: 1  ID: 0
Read mode               : Secure
Utilize accurate stream : Yes
Defeat audio cache      : Yes
Make use of C2 pointers : No
Read offset correction                      : 6
Overread into Lead-In and Lead-Out          : No
Fill up missing offset samples with silence : Yes
Delete leading and trailing silent blocks   : No
Null samples used in CRC calculations       : Yes
Used interface                              : Native Win32 interface for Win NT & 2000
Gap handling                                : Appended to previous track
Used output format              : User Defined Encoder
Selected bitrate                : 1024 kBit/s
Quality                         : High
Add ID3 tag                     : No
Command line compressor         : C:\Program Files (x86)\Exact Audio Copy\Flac\flac.exe
Additional command line options : -8 -V -T "ARTIST=%artist%" -T "TITLE=%title%" -T "ALBUM=%albumtitle%" -T "DATE=%year%" -T "TRACKNUMBER=%tracknr%" -T "GENRE=%genre%" -T "ALBUMARTIST=%albumartist%" -T "ALBUM ARTIST=%albumartist%" -T "COMMENT=EAC Secure Mode, Test & Copy, AccurateRip, FLAC -8" %source%
TOC of the extracted CD
     Track |   Start  |  Length  | Start sector | End sector
    ---------------------------------------------------------
        1  |  0:00.00 |  2:33.59 |         0    |    11533
        2  |  2:33.59 |  4:13.66 |     11534    |    30574
        3  |  6:47.50 |  5:10.30 |     30575    |    53854
        4  | 11:58.05 |  5:02.62 |     53855    |    76566
        5  | 17:00.67 |  1:11.67 |     76567    |    81958
        6  | 18:12.59 |  4:00.33 |     81959    |    99991
        7  | 22:13.17 |  0:53.12 |     99992    |   103978
        8  | 23:06.29 |  3:02.47 |    103979    |   117675
        9  | 26:09.01 |  0:52.23 |    117676    |   121598
       10  | 27:01.24 |  2:49.61 |    121599    |   134334
       11  | 29:51.10 |  1:15.39 |    134335    |   139998
       12  | 31:06.49 |  3:50.72 |    139999    |   157320
       13  | 34:57.46 |  1:41.73 |    157321    |   164968
       14  | 36:39.44 |  5:46.47 |    164969    |   190965
       15  | 42:26.16 | 11:10.47 |    190966    |   241262
       16  | 53:36.63 |  6:20.16 |    241263    |   269778
Track  1
     Filename C:\That is the question\Ethan Iverson; Umbria Jazz Orchestra - Bud Powell In The 21st Century (2021) [FLAC] {SSC 1619}\01 - Bud Powell In The 21st Century, Part 1- Chorale.wav
     Pre-gap length  0:00:02.00
     Peak level 96.5 %
     Extraction speed 3.9 X
     Track quality 100.0 %
     Test CRC DE2507E6
     Copy CRC DE2507E6
     Accurately ripped (confidence 1)  [D44888B1]  (AR v2)
     Copy OK
Track  2
     Filename C:\That is the question\Ethan Iverson; Umbria Jazz Orchestra - Bud Powell In The 21st Century (2021) [FLAC] {SSC 1619}\02 - Bud Powell In The 21st Century, Part 2- Continuity.wav
     Peak level 99.9 %
     Extraction speed 4.7 X
     Track quality 100.0 %
     Test CRC E829222F
     Copy CRC E829222F
     Accurately ripped (confidence 1)  [9C607149]  (AR v2)
     Copy OK
Track  3
     Filename C:\That is the question\Ethan Iverson; Umbria Jazz Orchestra - Bud Powell In The 21st Century (2021) [FLAC] {SSC 1619}\03 - Celia.wav
     Pre-gap length  0:00:02.00
     Peak level 99.6 %
     Extraction speed 4.5 X
     Track quality 99.9 %
     Test CRC 94D528D6
     Copy CRC 94D528D6
     Accurately ripped (confidence 1)  [D5AE3A67]  (AR v2)
     Copy OK
Track  4
     Filename C:\That is the question\Ethan Iverson; Umbria Jazz Orchestra - Bud Powell In The 21st Century (2021) [FLAC] {SSC 1619}\04 - Tempus Fugit.wav
     Pre-gap length  0:00:02.00
     Peak level 99.9 %
     Extraction speed 5.8 X
     Track quality 100.0 %
     Test CRC 13EE6F97
     Copy CRC 13EE6F97
     Accurately ripped (confidence 1)  [50E616C0]  (AR v2)
     Copy OK
Track  5
     Filename C:\That is the question\Ethan Iverson; Umbria Jazz Orchestra - Bud Powell In The 21st Century (2021) [FLAC] {SSC 1619}\05 - Five Simple Spells- I. Chorale.wav
     Pre-gap length  0:00:02.00
     Peak level 67.3 %
     Extraction speed 4.4 X
     Track quality 100.0 %
     Test CRC 6CAF17EF
     Copy CRC 6CAF17EF
     Accurately ripped (confidence 1)  [22A26469]  (AR v2)
     Copy OK
Track  6
     Filename C:\That is the question\Ethan Iverson; Umbria Jazz Orchestra - Bud Powell In The 21st Century (2021) [FLAC] {SSC 1619}\06 - Bouncing With Bud.wav
     Pre-gap length  0:00:02.00
     Peak level 99.9 %
     Extraction speed 6.1 X
     Track quality 100.0 %
     Test CRC 3332B17D
     Copy CRC 3332B17D
     Accurately ripped (confidence 1)  [47493160]  (AR v2)
     Copy OK
Track  7
     Filename C:\That is the question\Ethan Iverson; Umbria Jazz Orchestra - Bud Powell In The 21st Century (2021) [FLAC] {SSC 1619}\07 - Five Simple Spells- II. Waltz.wav
     Pre-gap length  0:00:02.00
     Peak level 96.4 %
     Extraction speed 4.3 X
     Track quality 100.0 %
     Test CRC 07E03F3D
     Copy CRC 07E03F3D
     Accurately ripped (confidence 1)  [51D7B547]  (AR v2)
     Copy OK
Track  8
     Filename C:\That is the question\Ethan Iverson; Umbria Jazz Orchestra - Bud Powell In The 21st Century (2021) [FLAC] {SSC 1619}\08 - Wail.wav
     Pre-gap length  0:00:02.00
     Peak level 99.7 %
     Extraction speed 6.1 X
     Track quality 100.0 %
     Test CRC C21C4B91
     Copy CRC C21C4B91
     Accurately ripped (confidence 1)  [6F50A80C]  (AR v2)
     Copy OK
Track  9
     Filename C:\That is the question\Ethan Iverson; Umbria Jazz Orchestra - Bud Powell In The 21st Century (2021) [FLAC] {SSC 1619}\09 - Five Simple Spells- III. Chorale.wav
     Pre-gap length  0:00:02.00
     Peak level 95.8 %
     Extraction speed 4.4 X
     Track quality 100.0 %
     Test CRC 515262D0
     Copy CRC 515262D0
     Accurately ripped (confidence 1)  [1D2112E6]  (AR v2)
     Copy OK
Track 10
     Filename C:\That is the question\Ethan Iverson; Umbria Jazz Orchestra - Bud Powell In The 21st Century (2021) [FLAC] {SSC 1619}\10 - Dance Of The Infidels.wav
     Pre-gap length  0:00:02.00
     Peak level 97.3 %
     Extraction speed 6.4 X
     Track quality 100.0 %
     Test CRC 6FD02FB3
     Copy CRC 6FD02FB3
     Accurately ripped (confidence 1)  [DC96E1E1]  (AR v2)
     Copy OK
Track 11
     Filename C:\That is the question\Ethan Iverson; Umbria Jazz Orchestra - Bud Powell In The 21st Century (2021) [FLAC] {SSC 1619}\11 - Five Simple Spells- IV. Moderato.wav
     Pre-gap length  0:00:02.00
     Peak level 96.4 %
     Extraction speed 5.3 X
     Track quality 100.0 %
     Test CRC 5138FDA6
     Copy CRC 5138FDA6
     Accurately ripped (confidence 1)  [0D82B3A9]  (AR v2)
     Copy OK
Track 12
     Filename C:\That is the question\Ethan Iverson; Umbria Jazz Orchestra - Bud Powell In The 21st Century (2021) [FLAC] {SSC 1619}\12 - 52nd Street Theme.wav
     Pre-gap length  0:00:02.00
     Peak level 97.3 %
     Extraction speed 7.1 X
     Track quality 100.0 %
     Test CRC A8F88A5A
     Copy CRC A8F88A5A
     Accurately ripped (confidence 1)  [D53F8DE8]  (AR v2)
     Copy OK
Track 13
     Filename C:\That is the question\Ethan Iverson; Umbria Jazz Orchestra - Bud Powell In The 21st Century (2021) [FLAC] {SSC 1619}\13 - Five Simple Spells- V. Ballad.wav
     Pre-gap length  0:00:02.00
     Peak level 96.0 %
     Extraction speed 6.1 X
     Track quality 100.0 %
     Test CRC ED577A87
     Copy CRC ED577A87
     Accurately ripped (confidence 1)  [9870FA3A]  (AR v2)
     Copy OK
Track 14
     Filename C:\That is the question\Ethan Iverson; Umbria Jazz Orchestra - Bud Powell In The 21st Century (2021) [FLAC] {SSC 1619}\14 - I'll Keep Loving You.wav
     Pre-gap length  0:00:02.00
     Peak level 96.4 %
     Extraction speed 7.8 X
     Track quality 100.0 %
     Test CRC 86CB839F
     Copy CRC 86CB839F
     Accurately ripped (confidence 1)  [84BAEF08]  (AR v2)
     Copy OK
Track 15
     Filename C:\That is the question\Ethan Iverson; Umbria Jazz Orchestra - Bud Powell In The 21st Century (2021) [FLAC] {SSC 1619}\15 - Nobile Paradiso.wav
     Pre-gap length  0:00:02.00
     Peak level 99.8 %
     Extraction speed 8.1 X
     Track quality 99.9 %
     Test CRC 147FE41E
     Copy CRC 147FE41E
     Accurately ripped (confidence 1)  [EB67B647]  (AR v2)
     Copy OK
Track 16
     Filename C:\That is the question\Ethan Iverson; Umbria Jazz Orchestra - Bud Powell In The 21st Century (2021) [FLAC] {SSC 1619}\16 - Un Poco Loco.wav
     Pre-gap length  0:00:02.00
     Peak level 99.8 %
     Extraction speed 9.1 X
     Track quality 100.0 %
     Test CRC 9FF80A5F
     Copy CRC 9FF80A5F
     Accurately ripped (confidence 1)  [959DD137]  (AR v2)
     Copy OK
All tracks accurately ripped
No errors occurred
End of status report
---- CUETools DB Plugin V2.1.6
[CTDB TOCID: eZHHfVdNnAz0sBC_dNzbL_TKHag-] found
Submit result: eZHHfVdNnAz0sBC_dNzbL_TKHag- has been confirmed
Track | CTDB Status
  1   | (3/3) Accurately ripped
  2   | (3/3) Accurately ripped
  3   | (3/3) Accurately ripped
  4   | (3/3) Accurately ripped
  5   | (3/3) Accurately ripped
  6   | (3/3) Accurately ripped
  7   | (3/3) Accurately ripped
  8   | (3/3) Accurately ripped
  9   | (3/3) Accurately ripped
 10   | (3/3) Accurately ripped
 11   | (3/3) Accurately ripped
 12   | (3/3) Accurately ripped
 13   | (3/3) Accurately ripped
 14   | (3/3) Accurately ripped
 15   | (3/3) Accurately ripped
 16   | (3/3) Accurately ripped
==== Log checksum E15B84C12F6B9BD5283918419F83CF713939A5D9FA83B6261995B3C0206D5C15 ====
По всем вопросам пишите личное сообщение пользователю M0p94ok.
22:28
402
Нет комментариев. Ваш будет первым!