Поиск

2021 Butcher Brown - Encore {Concord Jazz} [24-96]

2021 Butcher Brown - Encore {Concord Jazz} [24-96]
Стили:
Издатель (лейбл):
Битрейт аудио:
lossless

Треклист:

1. VA Noir  01:45
2. For My Love  04:45
3. Truck Fump  05:05
4. Aviation (Outro)  01:27
5. Hair Grease  02:23
 

Доп. инфо:

• Формат записи | Источник записи: [TR24][OF]
• Наличие водяных знаков: Нет
• Год издания релиза: 2021
• Продолжительность: 00:15:28
• Источник: internet
• WEB релиз: ссылка
• Контейнер: FLAC (*.flac)
• Тип рипа: tracks
• Разрядность: 24/96
• Формат: PCM
• Количество каналов: 2.0
• Наличие сканов: front

Лог проверки качества
foobar2000 1.4.2 / Dynamic Range Meter 1.1.1
log date: 2021-06-08 17:55:06

--------------------------------------------------------------------------------
Analyzed: Butcher Brown / ENCORE
--------------------------------------------------------------------------------

DR         Peak         RMS     Duration Track
--------------------------------------------------------------------------------
DR6       -0.50 dB    -8.46 dB      1:45 01-VA Noir
DR4       -0.46 dB    -6.17 dB      4:46 02-For My Love
DR6       -0.50 dB    -7.31 dB      5:06 03-Truck Fump
DR5       -0.50 dB    -7.33 dB      1:28 04-Aviation (Outro)
DR4       -0.46 dB    -5.44 dB      2:24 05-Hair Grease
--------------------------------------------------------------------------------

Number of tracks:  5
Official DR value: DR5

Samplerate:        96000 Hz
Channels:          2
Bits per sample:   24
Bitrate:           2797 kbps
Codec:             FLAC
================================================================================
По всем вопросам пишите личное сообщение пользователю M0p94ok.
12:21
278
Нет комментариев. Ваш будет первым!