Поиск

2021 Adrian Younge & Ali Shaheed Muhammad - 9 Instrumentals {Jazz is Dead JID009} [24-88.2]

2021 Adrian Younge & Ali Shaheed Muhammad - 9 Instrumentals {Jazz is Dead JID009} [24-88.2]
Стили:
Дата издания диска:
1 октября 2021
Носитель:
WEB
Формат:
PCM
Тип рипа:
tracks
Контейнер:
FLAC (*.flac)
Количество каналов:
2.0
Разрядность/ЧД:
24/88,2
Битрейт аудио:
lossless
Наличие сканов:
только обложка

Треклист:

01. Hey Lover (Instrumental) feat. Roy Ayers  02:25
02. Oi (Instrumental) feat. Marcos Valle  02:51
03. Visions of Love (Instrumental) feat. Gary Bartz  03:28
04. Aquarius (Why Do You Cry) (Instrumental) feat. Joao Donato  03:19
05. Soulful and Unique (Instrumental) feat. Roy Ayers  03:05
06. Isso É Que Eu Sei (Instrumental) feat. Marcos Valle  03:47
07. Nao Negue Seu Coracao (Instrumental) feat. Joao Donato  03:15
08. Sunflowers (Instrumental) feat. Roy Ayers  03:00
09. .Queira Bem (Instrumental) feat. Marcos Valle  04:09
10. Day by Day (Instrumental) feat. Gary Bartz  04:55
11. Gotta Love Again (Instrumental) feat. Marcos Valle  03:20
12. Forever More (Instrumental) feat. Joao Donato  03:04
13. Synchronized Vibration (Instrumental) feat. Roy Ayers  03:34
14. Viajando Por Ai (Instrumental) feat. Marcos Valle  03:59
15. Gravity (Instrumental) feat. Roy Ayers  03:25
16. Não Saia Da Praça (Instrumental) feat. Marcos Valle  02:48
17. Beauty (Instrumental) feat. Joao Donato  03:00
18. African Sounds (Instrumental) feat. Roy Ayers  03:10
19. A Gente Volta Amanhã (Instrumental) feat. Marcos Valle  03:17

Лог проверки качества
foobar2000 1.6.10 / Dynamic Range Meter 1.1.1
log date: 2022-10-26 18:46:53

--------------------------------------------------------------------------------
Analyzed: Adrian Younge / Instrumentals JID009
--------------------------------------------------------------------------------

DR         Peak         RMS     Duration Track
--------------------------------------------------------------------------------
DR8       -0.30 dB    -9.61 dB      2:28 01-Hey Lover (Instrumental)
DR9       -0.30 dB   -11.26 dB      2:51 02-Oi (Instrumental)
DR9       -0.30 dB   -10.34 dB      3:28 03-Visions of Love (Instrumental)
DR10      -0.30 dB   -11.67 dB      3:19 04-Aquarius (Why Do You Cry) (Instrumental)
DR11      -0.30 dB   -12.25 dB      3:06 05-Soulful and Unique (Instrumental)
DR8       -0.30 dB   -10.66 dB      3:49 06-Isso É Que Eu Sei (Instrumental)
DR9       -0.30 dB   -10.31 dB      3:15 07-Nao Negue Seu Coracao (Instrumental)
DR10      -0.30 dB   -10.95 dB      3:01 08-Sunflowers (Instrumental)
DR8       -0.30 dB   -10.81 dB      4:09 09-Queira Bem (Instrumental)
DR9       -0.30 dB   -11.03 dB      4:56 10-Day By Day (Instrumental)
DR9       -0.30 dB   -11.50 dB      3:20 11-Gotta Love Again (Instrumental)
DR9       -0.30 dB   -10.61 dB      3:04 12-Forever More (Instrumental)
DR11      -0.30 dB   -12.49 dB      3:35 13-Synchronized Vibration (Instrumental)
DR7       -0.30 dB    -9.59 dB      4:00 14-Viajando Por Ai (Instrumental)
DR9       -0.30 dB    -9.85 dB      3:27 15-Gravity (Instrumental)
DR9       -0.30 dB   -10.86 dB      2:49 16-Não Saia Da Praça (Instrumental)
DR10      -0.30 dB   -11.46 dB      3:00 17-Sua Beleza e Beleza (Instrumental)
DR8       -0.30 dB   -10.02 dB      3:09 18-African Sounds (Instrumental)
DR6       -0.30 dB    -8.71 dB      3:12 19-A Gente Volta Amanhã (Instrumental)
--------------------------------------------------------------------------------

Number of tracks:  19
Official DR value: DR9

Samplerate:        88200 Hz
Channels:          2
Bits per sample:   24
Bitrate:           2927 kbps
Codec:             FLAC
================================================================================
По всем вопросам пишите личное сообщение пользователю M0p94ok.
11:30
401
18:18
Заменил web на hi-res версию.