Вы используете незарегистрированную версию компонента "Вкладки"!

Поиск

2020 Ulf Wakenius – Taste of Honey {ACT Music} [24-96]

2020 Ulf Wakenius – Taste of Honey {ACT Music} [24-96]
Издатель (лейбл):
Битрейт аудио:
lossless
Доп. инфо:

Формат записи/Источник записи: [TR24][OF]
Наличие водяных знаков: Нет
Год издания: 2020
Продолжительность: 00:44:46
Наличие сканов в содержимом раздачи: Буклет PDF
Источник: highresaudio
Контейнер: FLAC (*.flac)
Тип рипа: tracks
Разрядность: 24/96
Формат: PCM
Количество каналов: 2.0

Лог проверки качества
foobar2000 1.3.16 / Dynamic Range Meter 1.1.1
log date: 2020-04-01 17:05:02

––––––––––––––––––––––––––––––––––––––––
Analyzed: Ulf Wakenius, Lars Danielsson, Magnus Öström / Taste of Honey
––––––––––––––––––––––––––––––––––––––––

DR Peak RMS Duration Track
––––––––––––––––––––––––––––––––––––––––
DR9 -1.00 dB -13.38 dB 4:18 01-Taste of Honey
DR12 -1.00 dB -15.50 dB 3:56 02-My Valentine
DR14 -1.00 dB -18.55 dB 3:02 03-You Never Give Me Your Money
DR7 -1.00 dB -9.82 dB 4:22 04-Maybe I'm Amazed
DR10 -1.00 dB -14.35 dB 5:50 05-Blackbird
DR14 -1.00 dB -18.88 dB 2:50 06-Yes to You
DR13 -1.97 dB -19.40 dB 3:20 07-And I Love Her
DR8 -1.00 dB -10.63 dB 3:03 08-Jet
DR13 -1.00 dB -16.84 dB 4:35 09-She's Leaving Home
DR12 -1.00 dB -17.58 dB 2:32 10-Our Lives
DR13 -1.00 dB -18.67 dB 3:07 11-Bésame Mucho
DR7 -1.00 dB -10.31 dB 3:57 12-Eleanor Rigby
––––––––––––––––––––––––––––––––––––––––

Number of tracks: 12
Official DR value: DR11

Samplerate: 96000 Hz
Channels: 2
Bits per sample: 24
Bitrate: 2782 kbps
Codec: FLAC
================================================================================
Any questions - support@pro-jazz.com. Есть вопросы - support@pro-jazz.com
00:49
324
Нет комментариев. Ваш будет первым!