Поиск

2020 Tom Misch & Yussef Dayes - What Kinda Music {Blue Note, Beyond The Groove} [24-44,1]

2020 Tom Misch & Yussef Dayes - What Kinda Music {Blue Note, Beyond The Groove} [24-44,1]
Дата издания диска:
2 октября 2020
Издатель (лейбл):
Битрейт аудио:
lossless
Доп. инфо:

Формат записи/Источник записи: [TR24][OF]
Наличие водяных знаков: Нет
Год издания/переиздания диска: 2020
Продолжительность: 00:08:55
Наличие сканов в содержимом раздачи: Только обложка альбома

Контейнер: FLAC (*.flac)
Тип рипа: tracks
Разрядность: 24/44,1
Формат: PCM
Количество каналов: 2.0

Источник (релизер): qobuz

Лог проверки качества
foobar2000 1.6.2 / Dynamic Range Meter 1.1.1
log date: 2020-11-30 02:25:03

--------------------------------------------------------------------------------
Analyzed: Tom Misch & Yussef Dayes / What Kinda Music (Bonus Tracks) EP
--------------------------------------------------------------------------------

DR         Peak         RMS     Duration Track
--------------------------------------------------------------------------------
DR6       -0.30 dB    -7.92 dB      3:10 01-Can You Feel It
DR8       -0.30 dB   -10.56 dB      2:29 02-Saddle
DR9       -0.30 dB   -11.45 dB      1:45 03-Tidal Wave Outro
DR6       -0.30 dB    -9.21 dB      1:31 04-Seagulls
--------------------------------------------------------------------------------

Number of tracks:  4
Official DR value: DR7

Samplerate:        44100 Hz
Channels:          2
Bits per sample:   24
Bitrate:           1591 kbps
Codec:             FLAC
================================================================================
No seeders - write personal message to M0p94ok. Any questions - support@pro-jazz.com.
Нет сидеров - пишите в личку M0p94ok. Есть вопросы - support@pro-jazz.com
19:37
228
Нет комментариев. Ваш будет первым!