Поиск

2020 Till Bronner & Bob James - On Vacation {Sony Masterwork} [24-96]

2020 Till Bronner & Bob James - On Vacation {Sony Masterwork} [24-96]
Стили:
Издатель (лейбл):
Битрейт аудио:
lossless
Доп. инфо:

Формат записи/Источник записи: [TR24][OF]
Наличие водяных знаков: Нет
Год издания: 2020
Продолжительность: 01:06:24
Наличие сканов в содержимом раздачи: Буклет PDF
Контейнер: FLAC (*.flac)
Тип рипа: tracks
Разрядность: 24/96
Формат: PCM
Количество каналов: 2.0
Источник (релизер): highresaudio.com

Лог проверки качества
foobar2000 1.4.8 / Dynamic Range Meter 1.1.1
log date: 2020-12-01 21:58:28

--------------------------------------------------------------------------------
Analyzed: Till Bronner & Bob James / On Vacation
--------------------------------------------------------------------------------

DR         Peak         RMS     Duration Track
--------------------------------------------------------------------------------
DR10      -1.00 dB   -14.48 dB      5:27 01-Save Your Love for Me
DR10      -1.00 dB   -12.73 dB      4:51 02-Lemonade
DR12      -1.00 dB   -15.01 dB      5:24 03-Late Night
DR11      -1.00 dB   -13.74 dB      5:13 04-Lavender Fields
DR11      -0.99 dB   -15.80 dB      4:11 05-September Morn
DR10      -1.00 dB   -13.40 dB      5:16 06-Elysium
DR10      -1.00 dB   -13.25 dB      4:47 07-I Get it From You
DR12      -1.00 dB   -16.80 dB      4:36 08-Miranda
DR11      -1.00 dB   -14.26 dB      4:36 09-Scent of Childhood
DR10      -1.00 dB   -11.93 dB      3:45 10-On Vacation
DR10      -1.00 dB   -13.82 dB      5:44 11-Sunset Vale
DR10      -1.00 dB   -14.68 dB      5:16 12-Basin Street Blues
DR10      -1.00 dB   -14.72 dB      4:06 13-If Someone had Told Me  (Bonus Track)
DR10      -1.00 dB   -15.24 dB      3:09 14-September Morn  (Radio Edit)
--------------------------------------------------------------------------------

Number of tracks:  14
Official DR value: DR11
Samplerate:        96000 Hz
Channels:          2
Bits per sample:   24
Bitrate:           2574 kbps
Codec:             FLAC
================================================================================
No seeders - write personal message to M0p94ok. Any questions - support@pro-jazz.com.
Нет сидеров - пишите в личку M0p94ok. Есть вопросы - support@pro-jazz.com
17:54
245
Нет комментариев. Ваш будет первым!