Поиск

2020 Sam Gendel - Satin Doll {Nonesuch} [24-44.1]

2020 Sam Gendel - Satin Doll {Nonesuch} [24-44.1]
Дата издания диска:
13 марта 2020
Издатель (лейбл):
Номер по каталогу:
075597922165
Носитель:
WEB
Формат:
PCM
Тип рипа:
tracks
Контейнер:
FLAC (*.flac)
Количество каналов:
2.0
Разрядность/ЧД:
24/44,1
Битрейт аудио:
lossless
Наличие сканов:
только обложка
Страна-производитель диска (релиза):
USA

Треклист:

01        Afro Blue    3:15
02        Saxofone Funeral    3:55
03        Satin Doll    3:45
04        Goodbye Pork Pie Hat    4:06
05        Stardust    4:24
06        The Theem    3:14
07        O Ovo    2:36
08        Cold Duck Time    4:58
09        Freddie Freeloader    2:36
10        Glide Mode    3:53
11        In A Sentimental Mood    3:38
12        Love Theme From Spartacus    3:10
13        SXFN FNRL    1:04

Состав:
  • sam gendel — saxophone
  • gabe noel — electric bass
  • philippe melanson — electronic percussion
  • dean hurley — mixing
  • mike bozzi — mastering
Лог проверки качества
foobar2000 1.6.2 / Dynamic Range Meter 1.1.1
log date: 2021-11-03 22:38:41

--------------------------------------------------------------------------------
Analyzed: Sam Gendel / Satin Doll
--------------------------------------------------------------------------------

DR         Peak         RMS     Duration Track
--------------------------------------------------------------------------------
DR7       -0.11 dB    -9.16 dB      3:16 01-Afro Blue
DR7       -0.22 dB   -10.20 dB      3:55 02-Saxofone Funeral
DR8       -0.10 dB   -10.27 dB      3:46 03-Satin Doll
DR7       -0.10 dB    -8.70 dB      4:06 04-Goodbye Pork Pie Hat
DR8       -0.10 dB   -10.54 dB      4:24 05-Stardust
DR11      -0.10 dB   -14.34 dB      3:15 06-The Theem
DR8       -0.10 dB   -10.12 dB      2:37 07-O Ovo
DR6       -0.20 dB    -8.27 dB      4:59 08-Cold Duck Time
DR6       -0.10 dB    -9.55 dB      2:37 09-Freddie Freeloader
DR7       -0.10 dB    -9.55 dB      3:54 10-Glide Mode
DR7       -0.10 dB    -9.15 dB      3:39 11-In a Sentimental Mood
DR9       -0.10 dB   -11.41 dB      3:10 12-Love Theme from Spartacus
DR9       -0.52 dB   -12.57 dB      1:02 13-SXFN FNRL
--------------------------------------------------------------------------------

Number of tracks:  13
Official DR value: DR8

Samplerate:        44100 Hz
Channels:          2
Bits per sample:   24
Bitrate:           1138 kbps
Codec:             FLAC
================================================================================
По всем вопросам пишите личное сообщение пользователю M0p94ok.
22:47
246
Нет комментариев. Ваш будет первым!