Поиск

2020 Ron Miles - Rainbow Sign {Blue Note 003239601} [24-96]

2020 Ron Miles - Rainbow Sign {Blue Note 003239601} [24-96]
Стили:
Место записи:
Sear Sound, New York City, NY, USA; Mighty Fine Productions, Denver, CO, USA
Дата издания диска:
9 октября 2020
Издатель (лейбл):
Битрейт аудио:
lossless

Треклист:

01. Like Those Who Dream (Miles) - 15:56
02. Queen of the South (Miles) - 4:20
03. Average (Miles) - 11:12
04. Rainbow Sign (Miles) - 7:09
05. The Rumor (Miles) - 4:31
06. Custodian of the New (Miles) - 7:49
07. This Old Man (Miles) - 6:57
08. Binder (Miles) - 6:02
09. A Kind Word (Miles) - 5:57

Лог проверки качества
foobar2000 1.6.1 / Dynamic Range Meter 1.1.1
log date: 2020-10-30 14:59:54

--------------------------------------------------------------------------------
Analyzed: Ron Miles / Rainbow Sign
--------------------------------------------------------------------------------

DR         Peak         RMS     Duration Track
--------------------------------------------------------------------------------
DR12       0.00 dB   -14.21 dB     15:56 01-Like Those Who Dream
DR10       0.00 dB   -12.57 dB      4:20 02-Queen of the South
DR11       0.00 dB   -14.24 dB     11:12 03-Average
DR10       0.00 dB   -12.18 dB      7:09 04-Rainbow Sign
DR10       0.00 dB   -12.36 dB      4:31 05-The Rumor
DR11       0.00 dB   -12.30 dB      7:49 06-Custodian of the New
DR10       0.00 dB   -12.56 dB      6:57 07-This Old Man
DR10       0.00 dB   -12.09 dB      6:02 08-Binder
DR10       0.00 dB   -12.04 dB      5:57 09-A Kind Word
--------------------------------------------------------------------------------

Number of tracks:  9
Official DR value: DR10

Samplerate:        96000 Hz
Channels:          2
Bits per sample:   24
Bitrate:           3113 kbps
Codec:             FLAC
================================================================================
Приватный:
Нет (DHT включён)
Размер:
1.52 Гб (1,635,453,020 байт) » файлов: 13
Участники:
0 раздают, 0 качают (0 участников всего)
Внешние участники:
18 раздают, 6 качают (24 участников всего) [ Обновить ]
No seeders - write personal message to M0p94ok. Any questions - support@pro-jazz.com.
Нет сидеров - пишите в личку M0p94ok. Есть вопросы - support@pro-jazz.com
13:10
154
Нет комментариев. Ваш будет первым!