Поиск

2020 Nathalie Darche - 15 Berceuses {Yolk} [24-88,2]

2020 Nathalie Darche - 15 Berceuses {Yolk} [24-88,2]
Носитель:
WEB
Формат:
PCM
Тип рипа:
tracks
Контейнер:
FLAC (*.flac)
Количество каналов:
2.0
Разрядность/ЧД:
24/88,2
Битрейт аудио:
lossless
Формат записи/Источник записи:
[TR24][OF]
Время звучания:
00:44:15
Наличие сканов:
только обложка
Наличие водяных знаков:
нет
Релизёр (источник):
M0p94ok
Треклист:

01. Berceuse pour Marion  02:26
02. Berceuse pour Alice  03:02
03. Berceuse pour Nicolas  04:44
04. Berceuse pour Marius  02:47
05. Song for Mayli  03:12
06. Berceuse pour Zoé  04:54
07. Berceuse pour léo  01:59
08. Berceuse pour Joseph  01:41
09. Berceuse pour Marin  02:56
10. Berceuse pour Arthur  02:23
11. Berceuse pour Cloé  02:45
12. Petite berceuse pour Jules et sa maman  03:48
13. Berceuse pour Nathan  02:29
14. Berceuse pour Eliott  03:14
15. Berceuse pour Flore et Capucine  01:55

Лог проверки качества
foobar2000 1.4.3 / Dynamic Range Meter 1.1.1
log date: 2020-05-22 07:51:37

--------------------------------------------------------------------------------
Analyzed: Nathalie Darche / 15 berceuses
--------------------------------------------------------------------------------

DR         Peak         RMS     Duration Track
--------------------------------------------------------------------------------
DR13      -1.50 dB   -21.93 dB      2:26 01-Berceuse pour Marion
DR12      -9.07 dB   -24.13 dB      3:03 02-Berceuse pour Alice
DR17      -0.12 dB   -24.11 dB      4:44 03-Berceuse pour Nicolas
DR13      -5.95 dB   -23.02 dB      2:48 04-Berceuse pour Marius
DR13      -5.57 dB   -25.16 dB      3:13 05-Song for Mayli
DR16      -0.08 dB   -22.62 dB      4:55 06-Berceuse pour Zoé
DR13      -5.23 dB   -24.29 dB      1:59 07-Berceuse pour léo
DR13      -2.48 dB   -21.22 dB      1:41 08-Berceuse pour Joseph
DR14      -5.19 dB   -25.35 dB      2:57 09-Berceuse pour Marin
DR11     -11.87 dB   -25.29 dB      2:23 10-Berceuse pour Arthur
DR13      -5.83 dB   -25.19 dB      2:46 11-Berceuse pour Cloé
DR15      -0.23 dB   -21.59 dB      3:49 12-Petite berceuse pour Jules et sa maman
DR16      -3.72 dB   -26.35 dB      2:29 13-Berceuse pour Nathan
DR14      -1.60 dB   -22.74 dB      3:15 14-Berceuse pour Eliott
DR11     -11.55 dB   -27.44 dB      1:56 15-Berceuse pour Flore et Capucine
--------------------------------------------------------------------------------

Number of tracks:  15
Official DR value: DR13

Samplerate:        88200 Hz
Channels:          2
Bits per sample:   24
Bitrate:           1902 kbps
Codec:             FLAC
================================================================================
Приватный:
Нет (DHT включён)
Размер:
655.81 Мб (687,665,299 байт) » файлов: 18
Участники:
2 раздают, 0 качают (2 участников всего)
Внешние участники:
--- [ Обновить ]
No seeders - write personal message to user M0p94ok. Нет сидеров - пишите личное сообщение пользователю M0p94ok.
23:04
21
Нет комментариев. Ваш будет первым!