Поиск

2020 Lee Ritenour - Dreamcatcher {The Players Club} [24-44.1, 88.2, 96]

2020 Lee Ritenour - Dreamcatcher {The Players Club} [24-44.1, 88.2, 96]
Битрейт аудио:
lossless
Лог проверки качества
foobar2000 1.4.8 / Dynamic Range Meter 1.1.1
log date: 2020-12-05 09:58:22

--------------------------------------------------------------------------------
Analyzed: Lee Ritenour / Dreamcatcher
--------------------------------------------------------------------------------

DR         Peak         RMS     Duration Track
--------------------------------------------------------------------------------
DR5        0.00 dB    -6.33 dB      4:56 03-The Lighthouse
DR11       0.00 dB   -12.70 dB      4:01 05-Starlight
DR4        0.00 dB    -6.88 dB      4:30 07-Couldn't Help Myself
DR6       -0.02 dB    -8.06 dB      4:48 08-For DG
DR7        0.00 dB    -8.25 dB      3:15 09-Via Verde
DR9        0.00 dB   -11.45 dB      3:26 10-Low & Slow
DR7        0.00 dB    -9.32 dB      2:42 11-Storyteller
DR8       -0.02 dB   -11.26 dB      4:10 12-2020, Pt. 1
DR6       -0.02 dB    -9.09 dB      3:07 13-2020, Pt. 2
DR8       -0.02 dB   -11.00 dB      1:56 14-2020, Pt. 3
--------------------------------------------------------------------------------

Number of tracks:  10
Official DR value: DR7
Samplerate:        44100 Hz
Channels:          2
Bits per sample:   24
Bitrate:           1161 kbps
Codec:             FLAC
================================================================================

--------------------------------------------------------------------------------
Statistics for: 06-Abbot Kinney
Number of samples: 17052000
Duration: 3:13
--------------------------------------------------------------------------------

                 Left              Right

Peak Value:     -0.01 dB   ---      0.00 dB
Avg RMS:        -5.71 dB   ---     -5.74 dB
DR channel:      4.37 dB   ---      4.39 dB
--------------------------------------------------------------------------------

Official DR Value: DR4
Samplerate:        88200 Hz
Channels:          2
Bits per sample:   24
Bitrate:           2203 kbps
Codec:             FLAC
================================================================================
--------------------------------------------------------------------------------
Analyzed: Lee Ritenour / Dreamcatcher
--------------------------------------------------------------------------------

DR         Peak         RMS     Duration Track
--------------------------------------------------------------------------------
DR6       -0.02 dB    -8.97 dB      4:23 01-Dreamcatcher
DR9       -0.02 dB   -10.77 dB      4:16 02-Charleston
DR7       -0.02 dB    -8.79 dB      4:29 04-Morning Glory Jam
--------------------------------------------------------------------------------

Number of tracks:  3
Official DR value: DR7
Samplerate:        96000 Hz
Channels:          2
Bits per sample:   24
Bitrate:           2518 kbps
Codec:             FLAC
================================================================================
No seeders - write personal message to M0p94ok. Any questions - support@pro-jazz.com.
Нет сидеров - пишите в личку M0p94ok. Есть вопросы - support@pro-jazz.com
22:38
158
Нет комментариев. Ваш будет первым!