Поиск

2020 Jasper Høiby - Planet B {Edition} [24-88,2]

2020 Jasper Høiby - Planet B {Edition} [24-88,2]
Стили:
Битрейт аудио:
lossless
Треклист:

◈ 01 - Story Of Self (00:04:08)
◈ 02 - Reimagine (00:05:43)
◈ 03 - Consciousness (00:05:30)
◈ 04 - Interconnectedness (00:04:56)
◈ 05 - Never Forgotten (00:05:19)
◈ 06 - The Dinosaur (00:02:20)
◈ 07 - We Didn't Earn The Sun (00:03:59)
◈ 08 - Life Is A Gift (00:07:32)
◈ 09 - Never Give Up (00:03:30)
◈ 10 - Reimagine (Outro) (00:02:23)

Доп. инфо:

• Формат записи | Источник записи: [TR24][OF]
• Наличие водяных знаков: Нет
• Год издания релиза: 2020
• Лейбл: Edition Records
• Продолжительность: 00:45:26
• Источник: internet
• WEB релиз: ссылка
• Контейнер: FLAC (*.flac)
• Тип рипа: tracks
• Разрядность: 24/88,2
• Формат: PCM
• Количество каналов: 2.0
• Наличие сканов: front

Лог проверки качества
foobar2000 1.4.2 / Замер динамического диапазона (DR) 1.1.1
Дата отчёта:  2020-03-12 09:47:53

--------------------------------------------------------------------------------
Анализ:   Jasper Høiby / Planet B
--------------------------------------------------------------------------------

DR         Пики         RMS           Продолжительность трека
--------------------------------------------------------------------------------
DR14      -0.80 дБ   -19.30 дБ      4:09 01-Story Of Self
DR10      -0.80 дБ   -13.07 дБ      5:44 02-Reimagine
DR11      -0.80 дБ   -15.33 дБ      5:30 03-Consciousness
DR9       -0.80 дБ   -12.67 дБ      4:57 04-Interconnectedness
DR11      -0.80 дБ   -14.83 дБ      5:20 05-Never Forgotten
DR9       -0.80 дБ   -12.40 дБ      2:21 06-The Dinosaur
DR10      -0.80 дБ   -14.48 дБ      4:00 07-We Didn't Earn The Sun
DR10      -0.80 дБ   -13.42 дБ      7:33 08-Life Is A Gift
DR11      -0.80 дБ   -14.96 дБ      3:31 09-Never Give Up
DR12      -1.31 дБ   -16.06 дБ      2:23 10-Reimagine (Outro)
--------------------------------------------------------------------------------

Количество треков: 10
Реальные значения DR: DR11

Частота:   88200 Гц
Каналов:   2
Разрядность:   24
Битрейт:   2295 кбит/с
Кодек:   FLAC
================================================================================
Приватный:
Нет (DHT включён)
Размер:
809.77 Мб (849,100,324 байт) » файлов: 11
Участники:
0 раздают, 0 качают (0 участников всего)
Внешние участники:
5 раздают, 1 качают (6 участников всего) [ Обновить ]
No seeders - write a personal message to user M0p94ok. Нет сидеров - пишите личное сообщение пользователю M0p94ok.
12:24
41
Нет комментариев. Ваш будет первым!