Поиск

2020 Iiro Rantala - Playing Gershwin {ACT Music} [24-96]

2020 Iiro Rantala - Playing Gershwin {ACT Music} [24-96]
Издатель (лейбл):
Треклист:

◈ 01 - Rhapsody in Blue (00:17:26)
◈ 02 - Porgy and Bess Suite (00:16:22)
◈ 03 - What Comes Up, Must Come Down (00:05:39)
◈ 04 - A Concert Tango (00:04:49)
◈ 05 - Anyone with a Heart (00:05:44)
◈ 06 - Hard Score (00:06:02)
◈ 07 - Freedom (00:08:38)

Доп. инфо:

• Формат записи | Источник записи: [TR24][OF]
• Наличие водяных знаков: Нет
• Год издания релиза: 2020
• Продолжительность: 01:04:43
• Источник: internet
• WEB релиз: ссылка
• Контейнер: FLAC (*.flac)
• Тип рипа: tracks
• Разрядность: 24/96
• Формат: WAV (flac.ape.wv)
• Количество каналов: 2.0
• Наличие сканов: front + booklet

Лог проверки качества
foobar2000 1.4.2 / Dynamic Range Meter 1.1.1
log date: 2020-01-29 21:24:17

--------------------------------------------------------------------------------
Analyzed: Iiro Rantala, The Deutsche Kammerphilharmonie Bremen & Jonathan Bloxham / Playing Gershwin
--------------------------------------------------------------------------------

DR         Peak         RMS     Duration Track
--------------------------------------------------------------------------------
DR11      -0.45 dB   -15.65 dB     17:27 01-Rhapsody in Blue
DR13      -0.45 dB   -17.54 dB     16:23 02-Porgy and Bess Suite
DR13      -0.46 dB   -16.15 dB      5:40 03-What Comes Up, Must Come Down
DR14      -0.46 dB   -17.37 dB      4:50 04-A Concert Tango
DR13      -0.46 dB   -17.79 dB      5:44 05-Anyone with a Heart
DR11      -0.46 dB   -15.33 dB      6:02 06-Hard Score
DR14      -0.46 dB   -18.44 dB      8:38 07-Freedom
--------------------------------------------------------------------------------

Number of tracks:  7
Official DR value: DR12

Samplerate:        96000 Hz
Channels:          2
Bits per sample:   24
Bitrate:           2613 kbps
Codec:             FLAC
================================================================================
Приватный:
Нет (DHT включён)
Размер:
1.17 Гб (1,256,773,913 байт) » файлов: 9
Участники:
2 раздают, 0 качают (2 участников всего)
Внешние участники:
23 раздают, 8 качают (31 участников всего) [ Обновить ]
Есть вопросы - пишите личное сообщение пользователю M0p94ok.
21:53
23
Нет комментариев. Ваш будет первым!