Вы используете незарегистрированную версию компонента "Вкладки"!

Поиск

2020 Duke Ellington and His Orchestra - All that Jazz, Vol. 126 At Carnegie Hall [24-48]

2020 Duke Ellington and His Orchestra - All that Jazz, Vol. 126 At Carnegie Hall [24-48]
Стили:
Носитель:
WEB
Тип рипа:
tracks+.cue
Аудиокодек:
FLAC (*.flac)
Битрейт аудио:
lossless
Время звучания:
01:37:39
Наличие сканов:
web
Релизёр (источник):
M0p94ok
Лог проверки качества
foobar2000 1.4.3 / Dynamic Range Meter 1.1.1
log date: 2020-05-31 20:18:14

--------------------------------------------------------------------------------
Analyzed: ? / ?
--------------------------------------------------------------------------------

DR         Peak         RMS     Duration Track
--------------------------------------------------------------------------------
DR13       0.00 dB   -15.24 dB      3:42 ?-01 - The new look (Live)
DR13       0.00 dB   -16.58 dB      3:49 ?-02 - Blue Serge (Live)
DR12       0.00 dB   -15.81 dB      6:13 ?-03 - Triple Play (Live)
DR14       0.00 dB   -16.03 dB      3:51 ?-04 - Harlem Airshaft (Live)
DR13       0.00 dB   -16.57 dB      6:44 ?-05 - Johnny Hodges Medley (Live)
DR13       0.00 dB   -15.76 dB      4:04 ?-06 - Mella Brava (Live)
DR13       0.00 dB   -16.15 dB      3:57 ?-07 - Kickapoo Joy Juice (Live)
DR12       0.00 dB   -16.17 dB      4:00 ?-08 - On a tourquoise cloud (Live)
DR14       0.00 dB   -17.83 dB      6:18 ?-09 - Bakiff (Live)
DR11       0.00 dB   -15.37 dB      5:30 ?-10 - Liberia Suite- I love the sunrise (Live)
DR14       0.00 dB   -18.40 dB      4:55 ?-11 - Liberia Suite- Dance No. 1 (Live)
DR15       0.00 dB   -18.92 dB      4:09 ?-12 - Liberia Suite- Dance No. 2 (Live)
DR15       0.00 dB   -18.63 dB      3:50 ?-13 - Liberia Suite- Dance No. 3 (Live)
DR14       0.00 dB   -16.39 dB      4:15 ?-14 - Liberia Suite- Dance No. 4 (Live)
DR14       0.00 dB   -17.73 dB      5:25 ?-15 - Liberia Suite- Dance No. 5 (Live)
DR11       0.00 dB   -14.03 dB      3:23 ?-16 - Cotton tail (Live)
DR13       0.00 dB   -16.37 dB      6:34 ?-17 - Theme Medley (Live)
DR13       0.00 dB   -17.65 dB      3:47 ?-18 - Basso profundo (Live)
DR13       0.00 dB   -17.13 dB      4:57 ?-19 - New York Coty Blues (Live)
DR14       0.00 dB   -19.93 dB      4:47 ?-20 - Clothed Woman (Live)
DR12       0.00 dB   -16.68 dB      3:38 ?-21 - Trumpets no end (Live)
--------------------------------------------------------------------------------

Number of tracks:  21
Official DR value: DR13

Samplerate:        48000 Hz
Channels:          2
Bits per sample:   24
Bitrate:           744 kbps
Codec:             FLAC
================================================================================
Any questions - support@pro-jazz.com. Есть вопросы - support@pro-jazz.com
20:27
202
Нет комментариев. Ваш будет первым!