Поиск

2020 Bill Laurance Trio - Live at Ronnie Scott's {Flint Music} [24-48]

2020 Bill Laurance Trio - Live at Ronnie Scott's {Flint Music} [24-48]
Стили:
Дата записи диска:
30 августа 2018
Место записи:
Ronnie Scott’s Jazz Club, London, UK
Дата издания диска:
14 февраля 2020
Битрейт аудио:
lossless
Доп. инфо:

Формат записи/Источник записи: [TR24][OF]
Наличие водяных знаков: Нет
Год издания/переиздания диска: 2020
Продолжительность: 01:08:22
Наличие сканов в содержимом раздачи: Только обложка альбома

Контейнер: FLAC (*.flac)
Тип рипа: tracks
Разрядность: 24/48
Формат: PCM
Количество каналов: 2.0

Источник (релизер): bandcamp

Лог проверки качества
foobar2000 1.6.2 / Dynamic Range Meter 1.1.1
log date: 2021-04-25 11:00:32

--------------------------------------------------------------------------------
Analyzed: Bill Laurance Trio / Live at Ronnie Scott's
--------------------------------------------------------------------------------

DR         Peak         RMS     Duration Track
--------------------------------------------------------------------------------
DR8       -0.30 dB   -10.06 dB      6:39 01-Chia
DR8       -0.30 dB   -10.41 dB      6:24 02-Swag Times
DR9       -0.30 dB   -11.63 dB     11:19 03-The Pines
DR7       -0.30 dB    -9.55 dB      9:05 04-The Good Things
DR10      -0.30 dB   -14.44 dB      7:04 05-Golden Hour
DR6       -0.76 dB    -8.85 dB      8:08 06-Red Sand
DR8       -0.30 dB   -10.13 dB      5:50 07-Madeleine
DR7       -0.30 dB    -9.87 dB      6:12 08-Never-Ending City
DR6       -0.30 dB    -9.40 dB      7:39 09-The Real One
--------------------------------------------------------------------------------

Number of tracks:  9
Official DR value: DR8

Samplerate:        48000 Hz
Channels:          2
Bits per sample:   24
Bitrate:           1615 kbps
Codec:             FLAC
================================================================================
No seeders - write personal message to M0p94ok. Any questions - support@pro-jazz.com.
Нет сидеров - пишите в личку M0p94ok. Есть вопросы - support@pro-jazz.com
22:16
50
Нет комментариев. Ваш будет первым!