Поиск

2020 Alain Jean-Marie, Diego Imbert - Interplay - The Music of Bill Evans {Trebim Music} [24-96]

2020 Alain Jean-Marie, Diego Imbert - Interplay - The Music of Bill Evans {Trebim Music} [24-96]
Стили:
Дата записи диска:
18 мая - 19 мая 2020
Место записи:
Joël Fajerman's Studio
Дата издания диска:
13 ноября 202
Носитель:
WEB
Формат:
PCM
Тип рипа:
tracks
Контейнер:
FLAC (*.flac)
Количество каналов:
2.0
Разрядность/ЧД:
24/96
Битрейт аудио:
lossless
Наличие сканов:
только обложка

Треклист:

01. Interplay  04:21
02. Alfie  03:42
03. Peri's Scope  02:33
04. Quiet Now  03:43
05. Turn Out the Stars  04:04
06. Show Type Tune  04:05
07. Nardis  03:07
08. The Two Lonely People  03:43
09. Very Early  05:21
10. Time Remembered  03:09
11. Gloria's Step  03:30
12. Blue in Green  04:46
13. Waltz for Debby  04:19
14. Laurie  04:08
15. We Will Meet Again  02:30

Состав:
  •     Double Bass – Diego Imbert
  •     Grand Piano – Alain Jean-Marie
  •     Mixed By – Stefano Amerio
  •     Recorded By – Joël Fajerman
Лог проверки качества
foobar2000 1.6.10 / Dynamic Range Meter 1.1.1
log date: 2022-03-16 19:57:41

--------------------------------------------------------------------------------
Analyzed: Alain Jean-Marie, Diego Imbert / Interplay - The Music of Bill Evans
--------------------------------------------------------------------------------

DR         Peak         RMS     Duration Track
--------------------------------------------------------------------------------
DR12      -0.31 dB   -13.79 dB      4:22 01-Interplay
DR10      -0.31 dB   -12.51 dB      3:42 02-Alfie
DR10      -0.31 dB   -11.99 dB      2:33 03-Peri's Scope
DR10      -0.31 dB   -11.80 dB      3:43 04-Quiet Now
DR10      -0.31 dB   -12.35 dB      4:04 05-Turn Out the Stars
DR10      -0.31 dB   -11.76 dB      4:06 06-Show Type Tune
DR11      -0.31 dB   -13.32 dB      3:08 07-Nardis
DR9       -0.31 dB   -11.54 dB      3:44 08-The Two Lonely People
DR9       -0.31 dB   -11.30 dB      5:22 09-Very Early
DR10      -0.31 dB   -12.23 dB      3:09 10-Time Remembered
DR11      -0.31 dB   -12.20 dB      3:31 11-Gloria's Step
DR11      -0.31 dB   -13.19 dB      4:46 12-Blue in Green
DR9       -0.31 dB   -11.94 dB      4:19 13-Waltz for Debby
DR12      -0.31 dB   -14.94 dB      4:09 14-Laurie
DR10      -0.31 dB   -13.39 dB      2:31 15-We Will Meet Again
--------------------------------------------------------------------------------

Number of tracks:  15
Official DR value: DR10

Samplerate:        96000 Hz
Channels:          2
Bits per sample:   24
Bitrate:           2198 kbps
Codec:             FLAC
================================================================================
По всем вопросам пишите личное сообщение пользователю M0p94ok.
20:08
181
Нет комментариев. Ваш будет первым!