Поиск

2019 The Skymasters - European Swing Giants - Swingin' Down the Lane {Jube Legends} [24-48]

2019 The Skymasters - European Swing Giants - Swingin' Down the Lane {Jube Legends} [24-48]
Стили:
Носитель:
WEB
Формат:
PCM
Тип рипа:
tracks
Контейнер:
FLAC (*.flac)
Количество каналов:
2.0
Разрядность/ЧД:
24/48
Время звучания:
00:57:17
Наличие сканов:
только обложка
Наличие водяных знаков:
нет
Релизёр (источник):
M0p94ok
Треклист:

01. Skymaster's Signal Tune  00:33
02. South Dakota  03:29
03. The Sheik of Araby  01:59
04. Walking Shoes  02:43
05. Crazy Music  03:06
06. It's in the Air  01:48
07. Royal Palace Blues  03:48
08. When the White Lilacs Bloom Again  02:44
09. My Baby Just Cares for Me  02:25
10. On Stage  02:07
11. Smoke Gets in Your Eyes (From "Roberta")  02:37
12. Dancing in the Dark  02:16
13. Original Dixieland Onestep feat. Beb Rowold  02:14
14. Jamboree feat. Beb Rowold  02:00
15. Scooby  02:29
16. Hallelujah (From "Hit the Deck")  01:26
17. Radetzky Swing feat. Arthur Kalischnig  01:51
18. Theme in Blues  03:07
19. South  03:04
20. Frenesi  02:05
21. Swingin' Down the Lane  02:01
22. Rico, Caliente y Saboroso  02:49
23. City Bounce  02:18
24. Vamos Mamboleros  02:04

Лог проверки качества
foobar2000 1.4.3 / Dynamic Range Meter 1.1.1
log date: 2020-02-19 11:11:56

--------------------------------------------------------------------------------
Analyzed: Arthur Kalischnig / European Swing Giants: The Skymasters - Swingin' Down the Lane (1)
          Beb Rowold / European Swing Giants: The Skymasters - Swingin' Down the Lane (2-3)
          The Skymasters / European Swing Giants: The Skymasters - Swingin' Down the Lane (4-24)
--------------------------------------------------------------------------------

DR         Peak         RMS     Duration Track
--------------------------------------------------------------------------------
DR11       0.00 dB   -13.37 dB      1:52 17-: Radetzky Swing
DR12       0.00 dB   -14.96 dB      2:14 13-: Original Dixieland Onestep
DR12       0.00 dB   -15.82 dB      2:01 14-: Jamboree
DR9        0.00 dB   -12.42 dB      0:34 01-: Skymaster's Signal Tune
DR11       0.00 dB   -14.99 dB      3:29 02-: South Dakota
DR12       0.00 dB   -17.21 dB      2:00 03-: The Sheik of Araby
DR14       0.00 dB   -16.74 dB      2:44 04-: Walking Shoes
DR13       0.00 dB   -16.56 dB      3:06 05-: Crazy Music
DR11       0.00 dB   -13.35 dB      1:48 06-: It's in the Air
DR14       0.00 dB   -17.77 dB      3:49 07-: Royal Palace Blues
DR11       0.00 dB   -13.73 dB      2:45 08-: When the White Lilacs Bloom Again
DR13       0.00 dB   -15.31 dB      2:25 09-: My Baby Just Cares for Me
DR11       0.00 dB   -15.16 dB      2:07 10-: On Stage
DR10       0.00 dB   -13.29 dB      2:38 11-: Smoke Gets in Your Eyes (From "Roberta")
DR13       0.00 dB   -16.28 dB      2:17 12-: Dancing in the Dark
DR11       0.00 dB   -14.49 dB      2:30 15-: Scooby
DR12       0.00 dB   -14.52 dB      1:27 16-: Hallelujah (From "Hit the Deck")
DR11       0.00 dB   -12.95 dB      3:08 18-: Theme in Blues
DR14       0.00 dB   -17.38 dB      3:05 19-: South
DR12       0.00 dB   -14.43 dB      2:06 20-: Frenesi
DR11       0.00 dB   -14.96 dB      2:02 21-: Swingin' Down the Lane
DR12       0.00 dB   -14.43 dB      2:50 22-: Rico, Caliente y Saboroso
DR12       0.00 dB   -14.32 dB      2:18 23-: City Bounce
DR13       0.00 dB   -15.08 dB      2:04 24-: Vamos Mamboleros
--------------------------------------------------------------------------------

Number of tracks:  24
Official DR value: DR12

Samplerate:        48000 Hz
Channels:          2
Bits per sample:   24
Bitrate:           1676 kbps
Codec:             FLAC
================================================================================
Приватный:
Нет (DHT включён)
Размер:
694.22 Мб (727,947,483 байт) » файлов: 26
Участники:
2 раздают, 0 качают (2 участников всего)
Внешние участники:
--- [ Обновить ]
Есть вопросы - пишите личное сообщение пользователю M0p94ok.
11:32
15
Нет комментариев. Ваш будет первым!