Вы используете незарегистрированную версию компонента "Вкладки"!

Поиск

2019 Rasgueo - Echo {Galileo Music GMC082} [24-48]

2019 Rasgueo - Echo {Galileo Music GMC082} [24-48]
Стили:
Номер по каталогу:
GMC082
Носитель:
WEB
Формат:
PCM
Тип рипа:
tracks+.cue
Контейнер:
FLAC (*.flac)
Количество каналов:
2.0
Разрядность/ЧД:
24/48
Битрейт аудио:
lossless
Время звучания:
00:55:16
Наличие сканов:
web
Страна-производитель диска (релиза):
Germany
Релизёр (источник):
M0p94ok
Лог проверки качества
foobar2000 1.5.5 / Dynamic Range Meter 1.1.1
log date: 2020-09-26 21:33:35

--------------------------------------------------------------------------------
Analyzed: Rasgueo / Echo
--------------------------------------------------------------------------------

DR         Peak         RMS     Duration Track
--------------------------------------------------------------------------------
DR9       -2.00 dB   -13.85 dB      5:35 01-Guajiras De Graciela
DR9       -1.98 dB   -14.05 dB      6:12 02-Lesbos
DR9       -3.67 dB   -18.01 dB      2:52 03-Sonrisa
DR10      -1.00 dB   -14.19 dB      6:45 04-Echo
DR12      -2.00 dB   -18.10 dB      4:55 05-Dreieck
DR14      -0.50 dB   -18.21 dB      3:53 06-Uncle Takis
DR10      -1.00 dB   -14.41 dB      7:01 07-Tránsito
DR9       -2.00 dB   -14.99 dB      5:34 08-Ilusiones
DR11      -1.00 dB   -14.79 dB      6:05 09-Baracoa
DR11      -1.00 dB   -15.44 dB      6:31 10-Asturias
--------------------------------------------------------------------------------

Number of tracks:  10
Official DR value: DR10

Samplerate:        48000 Hz
Channels:          2
Bits per sample:   24
Bitrate:           1622 kbps
Codec:             FLAC
================================================================================
Any questions - support@pro-jazz.com. Есть вопросы - support@pro-jazz.com
22:13
265
Нет комментариев. Ваш будет первым!