Поиск

2019 Jutz - Studio Konzert for Headphones {Neuklang} [24-96]

2019 Jutz - Studio Konzert for Headphones {Neuklang} [24-96]
Издатель (лейбл):
Битрейт аудио:
lossless
Треклист:

01. Wengernalp (Woodtli) - 6:30
02. Bertescu (Woodtli) - 5:05
03. Guggisberg (Trad.) - 4:23
04. Le Ranz des Vaches (Trad.) - 3:12

Состав:
  • Isa Kurz — vocals, violin, accordion, dulcimer
  • Daniel Woodtli — trumpet, flugelhorn, shrutibox, glockenspiel, vocals
  • Phillip Moll — double bass, glockenspiel, vocals

Recorded at Bauer Studios, Ludwigsburg on December 15, 2015.

Доп. инфо:

Формат записи/Источник записи: [TR24][OF]
Наличие водяных знаков: Нет
Год издания/переиздания диска: 2019
Издатель (лейбл): Neuklang
Продолжительность: 00:19:10
Наличие сканов в содержимом раздачи: Только обложка альбома

Контейнер: FLAC (*.flac)
Тип рипа: tracks
Разрядность: 24/96
Формат: PCM
Количество каналов: 2.0

Источник (релизер): redacted <-- qobuz

Лог проверки качества
foobar2000 1.5.4 / Dynamic Range Meter 1.1.1
log date: 2020-06-29 13:59:57

--------------------------------------------------------------------------------
Analyzed: Jutz / Studio Konzert for Headphones
--------------------------------------------------------------------------------

DR         Peak         RMS     Duration Track
--------------------------------------------------------------------------------
DR11      -0.69 dB   -16.54 dB      6:30 01-Wengernalp
DR12      -0.69 dB   -17.36 dB      5:05 02-Bertescu
DR12      -0.94 dB   -16.88 dB      4:23 03-Guggisberg
DR15      -1.41 dB   -22.71 dB      3:12 04-Le Ranz des Vaches
--------------------------------------------------------------------------------

Number of tracks:  4
Official DR value: DR12

Samplerate:        96000 Hz
Channels:          2
Bits per sample:   24
Bitrate:           2431 kbps
Codec:             FLAC
================================================================================
По всем вопросам пишите личное сообщение пользователю M0p94ok.
08:36
430
Нет комментариев. Ваш будет первым!