Вы используете незарегистрированную версию компонента "Вкладки"!

Поиск

2019 Dwight Trible - Mothership {Gearbox GB1552CD} [CD]

2019 Dwight Trible - Mothership {Gearbox GB1552CD} [CD]
Стили:
Битрейт аудио:
lossless
Доп. инфо:

Носитель: CD
Страна-производитель диска (релиза): Великобритания
Год издания: 2019
Издатель (лейбл): Gearbox Records
Номер по каталогу: GB1552CD
Аудиокодек: FLAC (*.flac)
Тип рипа: tracks+.cue
Продолжительность: 01:12:02
Источник: Paence
Наличие сканов в содержимом раздачи: нет

Лог создания рипа
Exact Audio Copy V1.3 from 2. September 2016

EAC extraction logfile from 2. July 2019, 4:29

Dwight Trible / Mothership

Used drive  : HL-DT-STDVD-RAM GH22LS30   Adapter: 1  ID: 0

Read mode               : Secure
Utilize accurate stream : Yes
Defeat audio cache      : Yes
Make use of C2 pointers : No

Read offset correction                      : 102
Overread into Lead-In and Lead-Out          : No
Fill up missing offset samples with silence : Yes
Delete leading and trailing silent blocks   : No
Null samples used in CRC calculations       : Yes
Used interface                              : Native Win32 interface for Win NT & 2000
Gap handling                                : Appended to previous track

Used output format              : User Defined Encoder
Selected bitrate                : 1024 kBit/s
Quality                         : High
Add ID3 tag                     : No
Command line compressor         : C:\Program Files (x86)\Exact Audio Copy\Flac\flac.exe
Additional command line options : -8 -e -p -V -T "ARTIST=%artist%" -T "TITLE=%title%" -T "ALBUM=%albumtitle%" -T "DATE=%year%" -T "TRACKNUMBER=%tracknr%" -T "GENRE=%genre%" -T "PERFORMER=%albuminterpret%" -T "COMPOSER=%composer%" %haslyrics%--tag-from-file=LYRICS="%lyricsfile%"%haslyrics% -T "ALBUMARTIST=%albumartist%" -T "DISCNUMBER=%cdnumber%" -T "TOTALDISCS=%totalcds%" -T "TOTALTRACKS=%numtracks%" -T "COMMENT=%comment%" %source% -o %dest%

TOC of the extracted CD

     Track |   Start  |  Length  | Start sector | End sector
    ---------------------------------------------------------
        1  |  0:00.00 |  7:24.01 |         0    |    33300
        2  |  7:24.01 |  5:30.64 |     33301    |    58114
        3  | 12:54.65 |  5:22.54 |     58115    |    82318
        4  | 18:17.44 |  5:20.44 |     82319    |   106362
        5  | 23:38.13 |  6:39.51 |    106363    |   136338
        6  | 30:17.64 |  4:48.08 |    136339    |   157946
        7  | 35:05.72 |  5:20.30 |    157947    |   181976
        8  | 40:26.27 |  5:40.12 |    181977    |   207488
        9  | 46:06.39 |  7:53.25 |    207489    |   242988
       10  | 53:59.64 |  6:23.04 |    242989    |   271717
       11  | 60:22.68 |  4:28.58 |    271718    |   291875
       12  | 64:51.51 |  7:10.03 |    291876    |   324128

Track  1

     Filename E:\Dwight Trible - Mothership (2019) [FLAC]\01 - Mothership.wav

     Pre-gap length  0:00:02.00

     Peak level 98.5 %
     Extraction speed 1.8 X
     Track quality 100.0 %
     Test CRC 11998740
     Copy CRC 11998740
     Accurately ripped (confidence 1)  [3571A796]  (AR v2)
     Copy OK

Track  2

     Filename E:\Dwight Trible - Mothership (2019) [FLAC]\02 - It's All About Love.wav

     Peak level 98.6 %
     Extraction speed 2.0 X
     Track quality 100.0 %
     Test CRC C5706925
     Copy CRC C5706925
     Accurately ripped (confidence 1)  [6D8A0645]  (AR v2)
     Copy OK

Track  3

     Filename E:\Dwight Trible - Mothership (2019) [FLAC]\03 - Mother.wav

     Peak level 93.9 %
     Extraction speed 2.0 X
     Track quality 99.9 %
     Test CRC 3A0889FE
     Copy CRC 3A0889FE
     Accurately ripped (confidence 1)  [44258D85]  (AR v2)
     Copy OK

Track  4

     Filename E:\Dwight Trible - Mothership (2019) [FLAC]\04 - Brother Where Are You.wav

     Peak level 98.6 %
     Extraction speed 2.4 X
     Track quality 100.0 %
     Test CRC 08370A68
     Copy CRC 08370A68
     Accurately ripped (confidence 1)  [D897134A]  (AR v2)
     Copy OK

Track  5

     Filename E:\Dwight Trible - Mothership (2019) [FLAC]\05 - Standing in the Need of Prayer.wav

     Peak level 98.5 %
     Extraction speed 2.4 X
     Track quality 99.9 %
     Test CRC 622B0F29
     Copy CRC 622B0F29
     Accurately ripped (confidence 1)  [378A1281]  (AR v2)
     Copy OK

Track  6

     Filename E:\Dwight Trible - Mothership (2019) [FLAC]\06 - Song for My Mother.wav

     Peak level 98.9 %
     Extraction speed 2.7 X
     Track quality 100.0 %
     Test CRC 38E9F4B4
     Copy CRC 38E9F4B4
     Accurately ripped (confidence 1)  [150E4AD2]  (AR v2)
     Copy OK

Track  7

     Filename E:\Dwight Trible - Mothership (2019) [FLAC]\07 - Tomorrow Never Knows.wav

     Peak level 98.4 %
     Extraction speed 2.8 X
     Track quality 100.0 %
     Test CRC 5752F348
     Copy CRC 5752F348
     Accurately ripped (confidence 1)  [4D09A00D]  (AR v2)
     Copy OK

Track  8

     Filename E:\Dwight Trible - Mothership (2019) [FLAC]\08 - Thank You Master.wav

     Peak level 98.3 %
     Extraction speed 3.0 X
     Track quality 100.0 %
     Test CRC 93567482
     Copy CRC 93567482
     Accurately ripped (confidence 1)  [3D3F9632]  (AR v2)
     Copy OK

Track  9

     Filename E:\Dwight Trible - Mothership (2019) [FLAC]\09 - Desert Fairy Princess.wav

     Peak level 98.3 %
     Extraction speed 3.2 X
     Track quality 100.0 %
     Test CRC 00D73D48
     Copy CRC 00D73D48
     Accurately ripped (confidence 1)  [FAAE212B]  (AR v2)
     Copy OK

Track 10

     Filename E:\Dwight Trible - Mothership (2019) [FLAC]\10 - Walkin' to Paradise.wav

     Peak level 98.8 %
     Extraction speed 3.3 X
     Track quality 100.0 %
     Test CRC 7A7BCE4F
     Copy CRC 7A7BCE4F
     Accurately ripped (confidence 1)  [623F9C38]  (AR v2)
     Copy OK

Track 11

     Filename E:\Dwight Trible - Mothership (2019) [FLAC]\11 - These Things You Are to Me.wav

     Peak level 98.7 %
     Extraction speed 3.3 X
     Track quality 100.0 %
     Test CRC 0F0A3241
     Copy CRC 0F0A3241
     Accurately ripped (confidence 1)  [A767CBEB]  (AR v2)
     Copy OK

Track 12

     Filename E:\Dwight Trible - Mothership (2019) [FLAC]\12 - Some Other Time.wav

     Peak level 98.3 %
     Extraction speed 3.6 X
     Track quality 100.0 %
     Test CRC 1DAA83B7
     Copy CRC 1DAA83B7
     Accurately ripped (confidence 1)  [62C71E58]  (AR v2)
     Copy OK

All tracks accurately ripped

No errors occurred

End of status report

---- CUETools DB Plugin V2.1.6

[CTDB TOCID: V88NIG4RhVqlXGTDOvYDa21btO0-] found
Submit result: V88NIG4RhVqlXGTDOvYDa21btO0- has been confirmed
Track | CTDB Status
  1   | (1/1) Accurately ripped
  2   | (1/1) Accurately ripped
  3   | (1/1) Accurately ripped
  4   | (1/1) Accurately ripped
  5   | (1/1) Accurately ripped
  6   | (1/1) Accurately ripped
  7   | (1/1) Accurately ripped
  8   | (1/1) Accurately ripped
  9   | (1/1) Accurately ripped
 10   | (1/1) Accurately ripped
 11   | (1/1) Accurately ripped
 12   | (1/1) Accurately ripped

==== Log checksum 3731497A457EDA90078C8923EBA74A5A7AF5033915150BE648921DC7A6EF123B ====
Содержание индексной карты (.CUE)
REM GENRE Jazz
REM DATE 2019
REM DISCID B210E10C
REM COMMENT "ExactAudioCopy v1.3"
CATALOG 5065001717871
PERFORMER "Dwight Trible"
TITLE "Mothership"
FILE "01 - Mothership.wav" WAVE
  TRACK 01 AUDIO
    TITLE "Mothership"
    PERFORMER "Dwight Trible"
    ISRC GBYG51952001
    INDEX 01 00:00:00
FILE "02 - It's All About Love.wav" WAVE
  TRACK 02 AUDIO
    TITLE "It's All About Love"
    PERFORMER "Dwight Trible"
    ISRC GBYG51952002
    INDEX 01 00:00:00
FILE "03 - Mother.wav" WAVE
  TRACK 03 AUDIO
    TITLE "Mother"
    PERFORMER "Dwight Trible"
    ISRC GBYG51952003
    INDEX 01 00:00:00
FILE "04 - Brother Where Are You.wav" WAVE
  TRACK 04 AUDIO
    TITLE "Brother Where Are You?"
    PERFORMER "Dwight Trible"
    ISRC GBYG51952004
    INDEX 01 00:00:00
FILE "05 - Standing in the Need of Prayer.wav" WAVE
  TRACK 05 AUDIO
    TITLE "Standing in the Need of Prayer"
    PERFORMER "Dwight Trible"
    ISRC GBYG51952005
    INDEX 01 00:00:00
FILE "06 - Song for My Mother.wav" WAVE
  TRACK 06 AUDIO
    TITLE "Song for My Mother"
    PERFORMER "Dwight Trible"
    ISRC GBYG51952006
    INDEX 01 00:00:00
FILE "07 - Tomorrow Never Knows.wav" WAVE
  TRACK 07 AUDIO
    TITLE "Tomorrow Never Knows"
    PERFORMER "Dwight Trible"
    ISRC GBYG51952007
    INDEX 01 00:00:00
FILE "08 - Thank You Master.wav" WAVE
  TRACK 08 AUDIO
    TITLE "Thank You Master"
    PERFORMER "Dwight Trible"
    ISRC GBYG51952008
    INDEX 01 00:00:00
FILE "09 - Desert Fairy Princess.wav" WAVE
  TRACK 09 AUDIO
    TITLE "Desert Fairy Princess"
    PERFORMER "Dwight Trible"
    ISRC GBYG51952009
    INDEX 01 00:00:00
FILE "10 - Walkin' to Paradise.wav" WAVE
  TRACK 10 AUDIO
    TITLE "Walkin' to Paradise"
    PERFORMER "Dwight Trible"
    ISRC GBYG51952010
    INDEX 01 00:00:00
FILE "11 - These Things You Are to Me.wav" WAVE
  TRACK 11 AUDIO
    TITLE "These Things You Are to Me"
    PERFORMER "Dwight Trible"
    ISRC GBYG51952011
    INDEX 01 00:00:00
FILE "12 - Some Other Time.wav" WAVE
  TRACK 12 AUDIO
    TITLE "Some Other Time"
    PERFORMER "Dwight Trible"
    ISRC GBYG51952012
    INDEX 01 00:00:00
Лог проверки качества
[CUETools log; Date: 04.07.2019 13:09:14; Version: 2.1.6]
[CTDB TOCID: V88NIG4RhVqlXGTDOvYDa21btO0-] found.
Track | CTDB Status
  1   | (2/2) Accurately ripped
  2   | (2/2) Accurately ripped
  3   | (2/2) Accurately ripped
  4   | (2/2) Accurately ripped
  5   | (2/2) Accurately ripped
  6   | (2/2) Accurately ripped
  7   | (2/2) Accurately ripped
  8   | (2/2) Accurately ripped
  9   | (2/2) Accurately ripped
 10   | (2/2) Accurately ripped
 11   | (2/2) Accurately ripped
 12   | (2/2) Accurately ripped
[AccurateRip ID: 001ff5e2-01294cf8-b210e10c] found.
Track   [  CRC   |   V2   ] Status
 01     [88a13406|3571a796] (1+1/2) Accurately ripped
 02     [eb1e7418|6d8a0645] (1+1/2) Accurately ripped
 03     [83808df9|44258d85] (1+1/2) Accurately ripped
 04     [701024bd|d897134a] (1+1/2) Accurately ripped
 05     [af98a120|378a1281] (1+1/2) Accurately ripped
 06     [9e57ed4f|150e4ad2] (1+1/2) Accurately ripped
 07     [9cb739a0|4d09a00d] (1+1/2) Accurately ripped
 08     [bade19d0|3d3f9632] (1+1/2) Accurately ripped
 09     [44e49eb7|faae212b] (1+1/2) Accurately ripped
 10     [c636dd62|623f9c38] (1+1/2) Accurately ripped
 11     [948de7cd|a767cbeb] (1+1/2) Accurately ripped
 12     [1a1d4879|62c71e58] (1+1/2) Accurately ripped

Track Peak [ CRC32  ] [W/O NULL] [  LOG   ]
 --   98,9 [26726B5C] [4B727B9A]
 01   98,5 [11998740] [A8289E60]   CRC32
 02   98,6 [C5706925] [09255A1E]   CRC32
 03   93,9 [3A0889FE] [648F03AD]   CRC32
 04   98,6 [08370A68] [684C1643]   CRC32
 05   98,5 [622B0F29] [9608693A]   CRC32
 06   98,9 [38E9F4B4] [037EA831]   CRC32
 07   98,4 [5752F348] [AC718C99]   CRC32
 08   98,3 [93567482] [226FF64C]   CRC32
 09   98,3 [00D73D48] [2013F98C]   CRC32
 10   98,8 [7A7BCE4F] [C5BC29EA]   CRC32
 11   98,7 [0F0A3241] [E99C7D19]   CRC32
 12   98,3 [1DAA83B7] [40B7DDE4]   CRC32
Any questions - support@pro-jazz.com. Есть вопросы - support@pro-jazz.com
00:07
152
Нет комментариев. Ваш будет первым!