Поиск

2019 Art Pepper - Promise Kept: The Complete Artists House Recordings {Omnivore} [24-44.1]

2019 Art Pepper - Promise Kept: The Complete Artists House Recordings {Omnivore} [24-44.1]
Стили:

This album is available on our DC++ hub: dc.pro-jazz.com
Этот альбом доступен на нашем DC++ хабе: dc.pro-jazz.com

Треклист:

01. Straight, No Chaser (Take 3)
02. Blues For Blanche
03. So In Love
04. Diane
05. Stardust
06. Yesterdays ((Take 2) [Bonus Track])
07. Landscape (Bonus Track)
08. Straight, No Chaser ((Take 4) [Bonus Track])
09. Body And Soul
10. Anthropology (Take 2)
11. Desafinado (Take 2)
12. Donna Lee
13. You Got To My Head
14. Blues For Blanche (Alternate A)
15. Desafinado ((Take 1) [Bonus Track])
16. Anthropology ((Take 1) [Bonus Track])
17. Donna Lee ((Alternate A) [Bonus Track])
18. Blues For Blanche ((Alternate B) [Bonus Track])
19. You Go To My Head ((Alternate A) [Bonus Track])
20. A Night in Tunisia (Take 2)
21. Lover Man (Oh Where Can You Be)
22. Straight, No Chaser (Take 2)
23. Duo Blues
24. My Friend John
25. Johnny's Blues
26. A Night In Tunisia ((Take 1) [Bonus Track])
27. Lover Man (Oh Where Can You Be) [Clarinet] [Bonus Track]
28. Straight, No Chaser ((Take 1) [Bonus Track])
29. My Friend John ((Alternate B) [Bonus Track])
30. My Friend John (Alternate A)
31. Tin Tin Deo
32. Stardust (Alternate A)
33. In A Mellow Tone (Take 2)
34. Art's Sweet Blues (Bonus Track)
35. But Beautiful ((Take 1) [Bonus Track])
36. You Go To My Head ((Alternate B) [Bonus Track])
37. Yesterdays ((Take 3) [Bonus Track])
38. Stardust ((Alternate B) [Bonus Track])
39. In A Mellow Tone ((Take 1) [Bonus Track])
40. Blues For Blanche ((Alternate C) [Bonus Track])
41. Yesterdays ((Take 1) [Bonus Track])
42. My Friend John ((Take 1 - Long False Start) [Bonus Track])
43. My Friend John ((Take 2 - False Start) [Bonus Track])
44. Blues For Blanche ((Alternate D) [Bonus Track])
45. Stardust ((Long False Start) [Bonus Track])
46. Donna Lee ((Alternate B) [Bonus Track])
47. But Beautiful ((Take 2) [Bonus Track])
48. A Night In Tunisia ((Take 3) [Bonus Track])
49. Blues For Blanche ((Alternate E) [Bonus Track])
50. Lover Man (Oh Where Can You Be) [Alternate Sax Take] [Bonus Track]

Состав:
Доп. инфо:

Формат записи/Источник записи: [TR24][OF]
Наличие водяных знаков: Нет
Год издания: 2019
Жанр: Jazz, Hard Bob
Издатель (лейбл): Omnivore Recordings
Продолжительность: 05:59:01
Наличие сканов в содержимом раздачи: Только обложка альбома
Контейнер: FLAC (*.flac)
Тип рипа: tracks
Разрядность: 24/44.1
Формат: PCM
Количество каналов: 2.0
Источник (релизер): highresaudio.com

Лог проверки качества
foobar2000 1.4 / Dynamic Range Meter 1.1.1
log date: 2019-09-18 19:08:17

--------------------------------------------------------------------------------
Analyzed: Art Pepper / Promise Kept: The Complete Artists House Recordings
--------------------------------------------------------------------------------

DR         Peak         RMS     Duration Track
--------------------------------------------------------------------------------
DR12      -0.50 dB   -14.30 dB      6:24 01-Straight, No Chaser  (Take 3)
DR11      -0.51 dB   -13.93 dB      6:48 02-Blues For Blanche
DR11      -0.50 dB   -13.09 dB     11:32 03-So In Love
DR13      -0.52 dB   -16.97 dB     12:18 04-Diane
DR12      -0.50 dB   -14.97 dB     10:34 05-Stardust
DR13      -0.61 dB   -16.52 dB      8:13 06-Yesterdays   ((Take 2) [Bonus Track])
DR12      -0.50 dB   -14.13 dB      9:28 07-Landscape  (Bonus Track)
DR11      -2.13 dB   -13.94 dB      8:08 08-Straight, No Chaser   ((Take 4) [Bonus Track])
DR11      -0.51 dB   -14.73 dB      4:40 09-Body And Soul
DR11      -0.51 dB   -14.49 dB      6:37 10-Anthropology  (Take 2)
DR12      -0.51 dB   -14.59 dB      8:05 11-Desafinado  (Take 2)
DR12      -0.50 dB   -14.18 dB      5:59 12-Donna Lee
DR11      -1.58 dB   -14.69 dB      6:03 13-You Got To My Head
DR11      -0.50 dB   -14.08 dB      7:31 14-Blues For Blanche  (Alternate A)
DR13      -0.66 dB   -16.06 dB     11:26 15-Desafinado   ((Take 1) [Bonus Track])
DR12      -0.55 dB   -15.41 dB      5:54 16-Anthropology   ((Take 1) [Bonus Track])
DR13      -0.50 dB   -15.05 dB      6:12 17-Donna Lee   ((Alternate A) [Bonus Track])
DR12      -0.50 dB   -14.39 dB      8:16 18-Blues For Blanche   ((Alternate B) [Bonus Track])
DR9       -4.24 dB   -15.79 dB      4:22 19-You Go To My Head   ((Alternate A) [Bonus Track])
DR12      -0.50 dB   -14.50 dB      9:48 20-A Night in Tunisia  (Take 2)
DR12      -0.65 dB   -14.46 dB      5:44 21-Lover Man (Oh Where Can You Be)
DR11      -0.50 dB   -13.82 dB      5:59 22-Straight, No Chaser  (Take 2)
DR12      -0.52 dB   -16.12 dB      7:54 23-Duo Blues
DR12      -0.50 dB   -14.02 dB      9:43 24-My Friend John
DR12      -0.55 dB   -14.49 dB      5:17 25-Johnny's Blues
DR12      -0.81 dB   -14.35 dB      8:48 26-A Night In Tunisia   ((Take 1) [Bonus Track])
DR8       -2.91 dB   -12.47 dB      3:14 27-Lover Man (Oh Where Can You Be) [Clarinet] [Bonus Track]
DR12      -1.37 dB   -14.58 dB      6:16 28-Straight, No Chaser   ((Take 1) [Bonus Track])
DR12      -0.50 dB   -13.45 dB      7:23 29-My Friend John   ((Alternate B) [Bonus Track])
DR12      -0.51 dB   -13.56 dB      7:49 30-My Friend John  (Alternate A)
DR11      -0.50 dB   -13.87 dB     11:06 31-Tin Tin Deo
DR12      -0.71 dB   -15.76 dB      8:44 32-Stardust  (Alternate A)
DR12      -0.75 dB   -16.05 dB      8:37 33-In A Mellow Tone  (Take 2)
DR11      -3.73 dB   -17.07 dB      3:54 34-Art's Sweet Blues  (Bonus Track)
DR14      -1.44 dB   -19.03 dB      3:21 35-But Beautiful   ((Take 1) [Bonus Track])
DR11      -3.53 dB   -18.65 dB      2:56 36-You Go To My Head   ((Alternate B) [Bonus Track])
DR11      -1.52 dB   -13.84 dB      7:06 37-Yesterdays   ((Take 3) [Bonus Track])
DR13      -0.54 dB   -17.74 dB     12:13 38-Stardust   ((Alternate B) [Bonus Track])
DR13      -1.20 dB   -18.61 dB     10:06 39-In A Mellow Tone   ((Take 1) [Bonus Track])
DR12      -0.50 dB   -14.31 dB      6:16 40-Blues For Blanche   ((Alternate C) [Bonus Track])
DR10      -3.13 dB   -14.85 dB      7:38 41-Yesterdays   ((Take 1) [Bonus Track])
DR11      -0.50 dB   -12.79 dB      5:35 42-My Friend John   ((Take 1 - Long False Start) [Bonus Track])
DR11      -0.97 dB   -13.63 dB      2:00 43-My Friend John   ((Take 2 - False Start) [Bonus Track])
DR10      -1.30 dB   -13.05 dB      6:04 44-Blues For Blanche   ((Alternate D) [Bonus Track])
DR10      -0.64 dB   -14.78 dB      4:18 45-Stardust   ((Long False Start) [Bonus Track])
DR12      -0.62 dB   -14.54 dB      7:30 46-Donna Lee   ((Alternate B) [Bonus Track])
DR14      -0.85 dB   -18.67 dB      3:51 47-But Beautiful   ((Take 2) [Bonus Track])
DR11      -0.95 dB   -14.32 dB      9:35 48-A Night In Tunisia   ((Take 3) [Bonus Track])
DR10      -1.45 dB   -13.92 dB      6:47 49-Blues For Blanche   ((Alternate E) [Bonus Track])
DR10      -3.67 dB   -16.00 dB      5:22 50-Lover Man (Oh Where Can You Be) [Alternate Sax Take] [Bonus Track]
--------------------------------------------------------------------------------

Number of tracks:  50
Official DR value: DR12
Samplerate:        44100 Hz
Channels:          2
Bits per sample:   24
Bitrate:           1500 kbps
Codec:             FLAC
================================================================================
18:10
658
Нет комментариев. Ваш будет первым!