Вы используете незарегистрированную версию компонента "Вкладки"!

Поиск

2019 9 Horses - Blood From A Stone {Sunnyside} [24-48]

2019 9 Horses - Blood From A Stone {Sunnyside} [24-48]
Дата издания диска:
7 декабря 2019
Носитель:
WEB
Формат:
PCM
Тип рипа:
tracks
Контейнер:
FLAC (*.flac)
Количество каналов:
2.0
Разрядность/ЧД:
24/48
Битрейт аудио:
lossless
Время звучания:
00:24:05
Наличие сканов:
только обложка
Страна-производитель диска (релиза):
USA
Релизёр (источник):
M0p94ok
Лог проверки качества
foobar2000 1.6.2 / Dynamic Range Meter 1.1.1
log date: 2021-07-14 23:41:22

--------------------------------------------------------------------------------
Analyzed: 9 Horses / Blood From A Stone
--------------------------------------------------------------------------------

DR         Peak         RMS     Duration Track
--------------------------------------------------------------------------------
DR10      -0.52 dB   -15.64 dB      9:28 01-redWHITEblue
DR8       -0.93 dB   -12.56 dB      6:01 02-bigLITTLE
DR11      -2.50 dB   -18.69 dB      5:22 03-we are not dead but asleep, dreaming of ourselves
DR7       -0.66 dB   -11.63 dB      3:15 04-sportsNEWS
--------------------------------------------------------------------------------

Number of tracks:  4
Official DR value: DR9

Samplerate:        48000 Hz
Channels:          2
Bits per sample:   24
Bitrate:           1536 kbps
Codec:             FLAC
================================================================================
Any questions - support@pro-jazz.com. Есть вопросы - support@pro-jazz.com
23:49
67
Нет комментариев. Ваш будет первым!