Вы используете незарегистрированную версию компонента "Вкладки"!

Поиск

2019 3TM – Lake {We Jazz} [24-44,1]

2019 3TM – Lake {We Jazz} [24-44,1]
Стили:
Доп. инфо:

Формат записи/Источник записи: [TR24][OF]
Наличие водяных знаков: Нет
Год издания: 2019
Издатель (лейбл): We Jazz Records
Продолжительность: 00:44:40
Наличие сканов в содержимом раздачи: Только обложка
Источник (релизер): qobuz
Контейнер: FLAC (*.flac)
Тип рипа: tracks
Разрядность: 24/44,1
Формат: PCM
Количество каналов: 2.0

Лог проверки качества
foobar2000 1.3.7 / Dynamic Range Meter 1.1.1
log date: 2019-11-27 14:18:53

––––––––––––––––––––––––––––––––––––––––
Analyzed: 3TM / Lake
––––––––––––––––––––––––––––––––––––––––

DR Peak RMS Duration Track
––––––––––––––––––––––––––––––––––––––––
DR10 -1.25 dB -16.08 dB 2:05 01-Seven Keys
DR9 -0.83 dB -13.33 dB 8:55 02-Lake
DR10 -0.89 dB -14.01 dB 7:28 03-A Pile of Broken Dreams
DR10 -0.82 dB -13.60 dB 4:18 04-Woods
DR12 -0.90 dB -15.20 dB 3:45 05-Contrail
DR9 -0.70 dB -11.87 dB 4:00 06-Laws of Life
DR12 -1.48 dB -16.87 dB 1:01 07-World Loop
DR9 -0.70 dB -13.17 dB 9:06 08-Suburban Portraits
DR7 -0.89 dB -10.40 dB 4:07 09-Model Two
––––––––––––––––––––––––––––––––––––––––

Number of tracks: 9
Official DR value: DR10

Samplerate: 44100 Hz
Channels: 2
Bits per sample: 24
Bitrate: 1455 kbps
Codec: FLAC
================================================================================
Any questions - support@pro-jazz.com. Есть вопросы - support@pro-jazz.com
12:39
188
Нет комментариев. Ваш будет первым!