Поиск

2018 Timo Lassy - Moves {Membran 234482}

2018 Timo Lassy - Moves {Membran 234482}
Стили:
Издатель (лейбл):

Состав:
  • Timo Lassy - tenor sax
  • Georgios Kontrafouris - piano
  • Antti Lötjönen - bass
  • Teppo Mäkynen - drums
  • Abdissa Assefa - percussion

Ricky-Tick Big Band Brass

  • conductor Valtteri Laurell Pöyhönen
  • trumpets: Jukka Eskola, Kalevi Louhivuori, Mikko Gunu Karjalainen, Janne Toivonen
  • trombones: Heikki Tuhkanen, Juha Jay Kortehisto, Aaro Huopainen, Juho Viljanen
  • Eero Koivistoinen - saxophone (6, 8)
  • Joyce Elaine Yuille - vocals (10, 12)
  • Paleface - rap (12)

Год издания: 2018
Номер по каталогу: 234482
Страна исполнителя: Finland
Аудиокодек: FLAC (*.flac)
Тип рипа: tracks
Битрейт аудио: lossless
Продолжительность: 69:06
Источник (релизер):WEB
Наличие сканов: нет

Треклист:
01. Q & A (feat. Ricky-Tick Big Band Brass)
02. Love Spirit
03. Lashes (feat. Ricky-Tick Big Band Brass)
04. Northern Express (feat. Ricky-Tick Big Band Brass)
05. Elegy For a Free Spirit (feat. Ricky-Tick Big Band Brass)
06. E71 (feat. Eero Koivistoinen)
07. Moves
08. Casa De Ferro (feat. Eero Koivistoinen)
09. Adriatic
10. Harlem's Way (feat. Joyce Elaine Yuille)
11. Sundown at Sunset
12. Trouble (feat. Paleface & Joyce Elaine Yuille)

 
Лог проверки качества
AUDIOCHECKER v2.0 beta (build 457) - by Dester - opdester@freemail.hu
~~~~~~~~~~~~~~~~~~~~~~~~~~~~~~~~~~
-=== DO NOT EDIT THIS FILE! ===-
Path: ...\Timo Lassy - Moves (2018) [FLAC]
01 -=- 01 - Q & A (feat. Ricky-Tick Big Band Brass).flac -=- CDDA (100%)
02 -=- 02 - Love Spirit.flac -=- CDDA (100%)
03 -=- 03 - Lashes (feat. Ricky-Tick Big Band Brass).flac -=- CDDA (100%)
04 -=- 04 - Northern Express (feat. Ricky-Tick Big Band Brass).flac -=- CDDA (100%)
05 -=- 05 - Elegy for a Free Spirit (feat. Ricky-Tick Big Band Brass).flac -=- CDDA (100%)
06 -=- 06 - E71 (feat. Eero Koivistoinen).flac -=- CDDA (100%)
07 -=- 07 - Moves.flac -=- CDDA (100%)
08 -=- 08 - Casa De Ferro (feat. Eero Koivistoinen).flac -=- CDDA (100%)
09 -=- 09 - Adriatic.flac -=- CDDA (100%)
10 -=- 10 - Harlem's Way (feat. Joyce Elaine Yuille).flac -=- CDDA (100%)
11 -=- 11 - Sundown at Sunset.flac -=- CDDA (100%)
12 -=- 12 - Trouble (feat. Paleface & Joyce Elaine Yuille).flac -=- CDDA (100%)
Summary 100,00% CDDA
200665332
••••••••••
foobar2000 1.3.12 / Замер динамического диапазона (DR) 1.1.1
Дата отчёта:  2018-05-01 10:25:10
--------------------------------------------------------------------------------
Анализ:   Timo Lassy / Moves
--------------------------------------------------------------------------------
DR         Пики         RMS           Продолжительность трека
--------------------------------------------------------------------------------
DR8       -0.18 дБ   -11.01 дБ      4:57 01-Q & A (feat. Ricky-Tick Big Band Brass)
DR9       -0.18 дБ   -11.42 дБ      6:00 02-Love Spirit
DR9       -0.18 дБ   -11.27 дБ      6:12 03-Lashes (feat. Ricky-Tick Big Band Brass)
DR8       -0.18 дБ   -10.80 дБ      4:43 04-Northern Express (feat. Ricky-Tick Big Band Brass)
DR9       -0.18 дБ   -12.01 дБ      6:36 05-Elegy for a Free Spirit (feat. Ricky-Tick Big Band Brass)
DR8       -0.18 дБ   -10.18 дБ      7:29 06-E71 (feat. Eero Koivistoinen)
DR9       -0.18 дБ   -11.85 дБ      7:44 07-Moves
DR8       -0.18 дБ   -10.39 дБ      6:17 08-Casa De Ferro (feat. Eero Koivistoinen)
DR9       -0.18 дБ   -10.86 дБ      5:17 09-Adriatic
DR7       -0.18 дБ    -9.04 дБ      3:41 10-Harlem's Way (feat. Joyce Elaine Yuille)
DR9       -0.18 дБ   -11.02 дБ      5:19 11-Sundown at Sunset
DR7       -0.18 дБ    -8.50 дБ      4:52 12-Trouble (feat. Paleface & Joyce Elaine Yuille)
--------------------------------------------------------------------------------
Количество треков: 12
Реальные значения DR: DR8
Частота:   44100 Гц
Каналов:   2
Разрядность:   16
Битрейт:   1002 кбит/с
Кодек:   FLAC
================================================================================

 

Приватный:
Нет (DHT включён)
Размер:
473.03 Мб (496,010,329 байт) » файлов: 15
Участники:
6 раздают, 0 качают (6 участников всего)
Внешние участники:
--- [ Обновить ]
12:08
40
RSS
Нет комментариев. Ваш будет первым!