Поиск

2018 Tim Garland - Weather Walker {Edition} [24-48]

2018 Tim Garland - Weather Walker {Edition} [24-48]
Стили:
Издатель (лейбл):
Треклист:

Формат записи/Источник записи: [TR24][OF]
Наличие водяных знаков: Нет
Год издания/переиздания диска: 2018
Продолжительность: 58:05
Наличие сканов в содержимом раздачи: Только обложка альбома
Контейнер: FLAC (*.flac)
Тип рипа: tracks
Разрядность: 24/48
Формат: PCM
Количество каналов: 2.0
Источник: qobuz.com

Треклист:
01. Rugged Land (4:00)
02. The Snows (6:37)
03. The Sky Is An Empty Mirror (3:02)
04. Gaia's Clock (3:21)
05. The Lady In The North (6:58)
06. Angry Sun (3:20)
07. Weather Walker (6:40)
08. High Fell (1:57)
09. Black Crag (5:43)
10. Altitude (2:47)
11. Magic Box (5:59)
12. The Sigh Of The Land (7:40)

 
Лог проверки качества
foobar2000 1.3.9 / Dynamic Range Meter 1.1.1
log date: 2018-06-08 15:38:58
--------------------------------------------------------------------------------
Analyzed: Tim Garland / Weather Walker
--------------------------------------------------------------------------------
DR         Peak         RMS     Duration Track
--------------------------------------------------------------------------------
DR10      -1.02 dB   -12.75 dB      4:00 01-Rugged Land
DR11      -1.02 dB   -15.29 dB      6:37 02-The Snows
DR11      -1.02 dB   -17.01 dB      3:02 03-The Sky Is An Empty Mirror
DR10      -1.02 dB   -14.32 dB      3:21 04-Gaia's Clock
DR10      -1.02 dB   -13.48 dB      6:58 05-The Lady In The North
DR10      -1.02 dB   -13.28 dB      3:20 06-Angry Sun
DR9       -1.02 dB   -12.20 dB      6:40 07-Weather Walker
DR10      -1.02 dB   -14.73 dB      1:57 08-High Fell
DR10      -1.02 dB   -14.05 dB      5:43 09-Black Crag
DR9       -1.02 dB   -13.16 dB      2:47 10-Altitude
DR10      -1.02 dB   -13.82 dB      5:59 11-Magic Box
DR10      -1.02 dB   -14.37 dB      7:40 12-The Sigh Of The Land
--------------------------------------------------------------------------------
Number of tracks:  12
Official DR value: DR10
Samplerate:        48000 Hz
Channels:          2
Bits per sample:   24
Bitrate:           1421 kbps
Codec:             FLAC
================================================================================

 

Приватный:
Нет (DHT включён)
Размер:
619.99 Мб (650,111,218 байт) » файлов: 15
Участники:
0 раздают, 0 качают (0 участников всего)
Внешние участники:
2 раздают, 1 качают (3 участников всего) [ Обновить ]
Нет сидеров - пишите личное сообщение M0p94ok. Не нравятся торренты? Участники группы Pro-jazz Club могут заказать прямую ссылку на скачивание из облака.
No seeders - write a personal message to M0p94ok. Don't like torrents? Members of Pro-jazz Club group can order a direct download link from the cloud.
17:55
168
Нет комментариев. Ваш будет первым!