Поиск

2018 The Chick Corea & Steve Gadd Band - Chinese Butterfly {Concord Stretch} [24-96]

2018 The Chick Corea & Steve Gadd Band - Chinese Butterfly {Concord Stretch} [24-96]
Издатель (лейбл):

Состав:
  • Philip Bailey Vocals
  • Chick Corea Composer, Executive Producer, Keyboards, Piano, Producer
  • Steve Gadd Drums, Producer
  • Lionel Loueke Composer, Guitar, Voices
  • Carlitos Del Puerto Bass (Acoustic), Bass (Electric)
  • Luisito Quintero Percussion
  • Steve Wilson Flute, Saxophone

Формат записи/Источник записи: [TR24][OF]
Наличие водяных знаков: Нет
Год издания/переиздания диска: 19 января 2018
Продолжительность: 01:35:18
Наличие сканов в содержимом раздачи: Буклет PDF
Контейнер: FLAC (*.flac)
Тип рипа: tracks
Разрядность: 24/96
Формат: PCM
Количество каналов: 2.0
Источник: WRZmusic
Магазин: qobuz.com

Треклист:
01. Chick's Chums (9:21)
02. Serenity (6:37)
03. Like I Was Sayin' (6:42)
04. A Spanish Song (8:49)
05. Chinese Butterfly (11:51)
06. Return To Forever (17:28)
07. Wake-Up Call (18:12)
08. Gadd-zooks (16:17)

 
Лог проверки качества
foobar2000 1.3.9 / Dynamic Range Meter 1.1.1
log date: 2018-01-19 12:48:36
--------------------------------------------------------------------------------
Analyzed: Chick Corea + Steve Gadd Band / Chinese Butterfly
--------------------------------------------------------------------------------
DR         Peak         RMS     Duration Track
--------------------------------------------------------------------------------
DR13       0.00 dB   -14.67 dB      9:21 01-Chick's Chums
DR11       0.00 dB   -14.59 dB      6:37 02-Serenity
DR9        0.00 dB   -13.01 dB      6:42 03-Like I Was Sayin'
DR12       0.00 dB   -14.40 dB      8:49 04-A Spanish Song
DR11       0.00 dB   -14.41 dB     11:51 05-Chinese Butterfly
DR11       0.00 dB   -15.35 dB     17:28 06-Return To Forever
DR12       0.00 dB   -15.99 dB     18:12 07-Wake-Up Call
DR12       0.00 dB   -17.11 dB     16:17 08-Gadd-zooks
--------------------------------------------------------------------------------
Number of tracks:  8
Official DR value: DR11
Samplerate:        96000 Hz
Channels:          2
Bits per sample:   24
Bitrate:           2866 kbps
Codec:             FLAC
================================================================================

 

Приватный:
Нет (DHT включён)
Размер:
1.91 Гб (2,056,081,260 байт) » файлов: 12
Участники:
9 раздают, 0 качают (9 участников всего)
Внешние участники:
--- [ Обновить ]
Скорость:
0/c 89.00 байт/c
10:01
74
RSS
Нет комментариев. Ваш будет первым!