Поиск

2018 Tenderlonius - The Shakedown {22a 022} [WEB]

2018 Tenderlonius - The Shakedown {22a 022} [WEB]
Дата издания диска:
15 июня 2018
Битрейт аудио:
lossless
Треклист:

1. Expansions. 6:54
2. Yussef's Groove. 5:47
3. Togo. 7:06
4. SV Interlude. 2:57
5. The Shakedown. 6:27
6. Maria. 4:39
7. You Decide. 6:18
8. SV Disco. 4:43
9. Red Sky at Night. 9:34

 
DRM.log
foobar2000 1.3.8 / Dynamic Range Meter 1.1.1
log date: 2019-01-28 15:25:13
--------------------------------------------------------------------------------
Analyzed: Tenderlonious / The Shakedown
--------------------------------------------------------------------------------
DR         Peak         RMS     Duration Track
--------------------------------------------------------------------------------
DR9       -0.50 dB   -12.38 dB      6:55 01-Expansions
DR8       -1.00 dB   -11.08 dB      5:48 02-Yussef's Groove
DR10      -0.50 dB   -12.76 dB      7:07 03-Togo
DR11      -0.50 dB   -14.14 dB      2:58 04-SV Interlude
DR11      -0.50 dB   -14.19 dB      6:27 05-The Shakedown
DR9       -0.50 dB   -12.14 dB      4:39 06-Maria
DR10      -0.50 dB   -13.60 dB      6:18 07-You Decide
DR10      -0.50 dB   -12.53 dB      4:43 08-SV Disco
DR9       -0.50 dB   -12.51 dB      9:35 09-Red Sky at Night
--------------------------------------------------------------------------------
Number of tracks:  9
Official DR value: DR10
Samplerate:        44100 Hz
Channels:          2
Bits per sample:   16
Bitrate:           771 kbps
Codec:             FLAC
================================================================================
Лог проверки качества
-----------------------

DON'T MODIFY THIS FILE

-----------------------

PERFORMER: auCDtect Task Manager, ver. 1.6.0 RC1 build 1.6.0.1
Copyright (c) 2008-2010 y-soft. All rights reserved
http://y-soft.org

ANALYZER: auCDtect: CD records authenticity detector, version 0.8.2
Copyright (c) 2004 Oleg Berngardt. All rights reserved.
Copyright (c) 2004 Alexander Djourik. All rights reserved.

FILE: 01. Expansions.flac
  Size: 42930620 Hash: E4B1B74FDC06A381CEAD3451F5EB3C4F Accuracy: -m0
  Conclusion: CDDA 100%
  Signature: 3ACDF78A1088A10DD38460974E1101CBCC2EEF8C
FILE: 02. Yussef's Groove.flac
  Size: 36177089 Hash: C4E62B8D62E8DEDC41647EEAC0F10CEC Accuracy: -m0
  Conclusion: CDDA 100%
  Signature: 9ECBC49D0B320A7D8C22F2EDE26EA18AE44C7C21
FILE: 03. Togo.flac
  Size: 41100431 Hash: E7F8C656DBAB30FE30FC9A3321776C53 Accuracy: -m0
  Conclusion: CDDA 100%
  Signature: 5E1A2BF7A4B6392EEC5E64CCFE1CCBAF2F1D3F82
FILE: 04. SV Interlude.flac
  Size: 14731791 Hash: 46CC8E9C2E6EC018D14F9DBE39442707 Accuracy: -m0
  Conclusion: CDDA 100%
  Signature: 1BBCAF49824BABE314AD243CBFD6F992E62EA001
FILE: 05. The Shakedown.flac
  Size: 35465262 Hash: 9C6C44D385AE088A02C6E5FFFEADD558 Accuracy: -m0
  Conclusion: CDDA 100%
  Signature: 5E40C625C4D603B3D8CC41A7E7EFABB923CD9A82
FILE: 06. Maria.flac
  Size: 28927670 Hash: 789BDB95C52873AF48E7B1168EEB3FE5 Accuracy: -m0
  Conclusion: CDDA 100%
  Signature: 6332F42FA38202B6879B32A9D2C72252F68EC2A3
FILE: 07. You Decide.flac
  Size: 33519545 Hash: E470747A0502073BBADD70946D78684F Accuracy: -m0
  Conclusion: CDDA 100%
  Signature: 4A88AB89DE7AAB56F4D14FAE1C75CFF631B27A07
FILE: 08. SV Disco.flac
  Size: 28304843 Hash: 86E9DFF0C2F2E1C957A173C5587BE71D Accuracy: -m0
  Conclusion: CDDA 100%
  Signature: 4AC4CC4676E42215F34734A73FA3C42E717C72DF
FILE: 09. Red Sky at Night.flac
  Size: 55509340 Hash: 87D011C7EF6EC001541050872216579F Accuracy: -m0
  Conclusion: CDDA 100%
  Signature: 8490A4C8698B92319EBCEA635B2B284A5426118F
Скачивание доступно после регистрации!!
Приватный:
Нет (DHT включён)
Размер:
302.51 Мб (317,202,986 байт) » файлов: 14
Участники:
3 раздают, 1 качают (4 участников всего)
Внешние участники:
9 раздают, 3 качают (12 участников всего) [ Обновить ]
Скорость:
1.06 Мб/c 0/c
14:52
24
Нет комментариев. Ваш будет первым!