Поиск

2018 Splashgirl - Sixth Sense {Hubro HUBROCD2587}

2018 Splashgirl - Sixth Sense {Hubro HUBROCD2587}

Состав:
  • Andreas Stensland Løwe - grand piano, synthesizers, Wurlitzer 200A, clavinet, electronics
  • Jo Berger Myhre - double bass, bass guitar, electric guitar, Grendel Drone Commander
  • Andreas Lønmo Knudsrød - drums, percussion, drum machine

Splashgirl

Год издания: 2018
Издатель (лейбл): Hubro
Номер по каталогу: HUBROCD2587
Страна исполнителя: Norway
Аудиокодек: FLAC (*.flac)
Тип рипа: tracks
Битрейт аудио: lossless
Продолжительность: 40:56
Источник (релизер): WEB
Наличие сканов: нет

Треклист:
01. Carrier
02. Broken
03. Sixth Sense
04. Monsoon
05. Half Self
06. Taal Caldera
07. Sedna

 
Лог проверки качества
AUDIOCHECKER v2.0 beta (build 457) - by Dester - opdester@freemail.hu
~~~~~~~~~~~~~~~~~~~~~~~~~~~~~~~~~~
-=== DO NOT EDIT THIS FILE! ===-
Path: ...\Splashgirl - Sixth Sense (2018) [FLAC]
1 -=- 01 - Carrier.flac -=- CDDA (100%)
2 -=- 02 - Broken.flac -=- CDDA (100%)
3 -=- 03 - Sixth Sense.flac -=- CDDA (100%)
4 -=- 04 - Monsoon.flac -=- CDDA (100%)
5 -=- 05 - Half Self.flac -=- CDDA (100%)
6 -=- 06 - Taal Caldera.flac -=- CDDA (100%)
7 -=- 07 - Sedna.flac -=- CDDA (100%)
Summary 100,00% CDDA
1324644
••••••••••
foobar2000 1.3.12 / Замер динамического диапазона (DR) 1.1.1
Дата отчёта:  2018-04-24 20:24:10
--------------------------------------------------------------------------------
Анализ:   Splashgirl / Sixth Sense
--------------------------------------------------------------------------------
DR         Пики         RMS           Продолжительность трека
--------------------------------------------------------------------------------
DR7       -0.60 дБ   -11.68 дБ      6:13 01-Carrier
DR8       -0.60 дБ   -13.04 дБ      7:18 02-Broken
DR9       -0.60 дБ   -13.27 дБ      7:02 03-Sixth Sense
DR7       -0.59 дБ   -10.25 дБ      4:24 04-Monsoon
DR8       -0.60 дБ   -12.17 дБ      4:43 05-Half Self
DR9       -0.60 дБ   -11.70 дБ      5:33 06-Taal Caldera
DR11      -0.73 дБ   -17.49 дБ      5:43 07-Sedna
--------------------------------------------------------------------------------
Количество треков: 7
Реальные значения DR: DR9
Частота:   44100 Гц
Каналов:   2
Разрядность:   16
Битрейт:   577 кбит/с
Кодек:   FLAC
================================================================================

 

Приватный:
Нет (DHT включён)
Размер:
212.78 Мб (223,115,010 байт) » файлов: 10
Участники:
7 раздают, 0 качают (7 участников всего)
Внешние участники:
--- [ Обновить ]
21:55
48
RSS
Нет комментариев. Ваш будет первым!