Поиск

2018 Paier Valcic Quartet - Cinema Scenes {ACT Music} [24-44,1]

2018 Paier Valcic Quartet - Cinema Scenes {ACT Music} [24-44,1]
Стили:
Издатель (лейбл):
Состав:
  • Klaus Paier - accordion, bandoneon
  • Asja Valcic - cello
  • Stefan Gfrerrer - bass
  • Roman Werni - drums, percussion

Формат записи/Источник записи: [TR24][OF]
Наличие водяных знаков: Нет
Год издания/переиздания диска: 2018
Продолжительность: 54:21
Наличие сканов в содержимом раздачи: Буклет PDF
Контейнер: FLAC (*.flac)
Тип рипа: tracks
Разрядность: 24/44,1
Формат: PCM
Количество каналов: 2.0
Источник: qobuz.com

Треклист:
01. Synchronization (7:01)
02. Safran (4:48)
03. Rush (4:24)
04. Hesitation (4:41)
05. Griet's Theme (4:18)
06. Le Jardin (4:34)
07. Cinema Scenes: I. Doe Eyes (2:27)
08. Cinema Scenes: II. Moving Pictures (2:42)
09. Cinema Scenes: III. Silence (2:06)
10. Cinema Scenes: IV. Exciting Moment (4:10)
11. Inspired Tale (5:30)
12. Ricochet (7:39)

 
Лог проверки качества
foobar2000 1.3.9 / Dynamic Range Meter 1.1.1
log date: 2018-05-23 10:06:25
--------------------------------------------------------------------------------
Analyzed: Paier Valcic Quartet / Cinema Scenes
--------------------------------------------------------------------------------
DR         Peak         RMS     Duration Track
--------------------------------------------------------------------------------
DR9       -0.50 dB   -13.81 dB      7:01 01-Synchronization
DR10      -0.50 dB   -13.18 dB      4:48 02-Safran
DR10      -0.50 dB   -13.28 dB      4:24 03-Rush
DR13      -0.50 dB   -16.28 dB      4:41 04-Hesitation
DR9       -0.50 dB   -11.59 dB      4:18 05-Griet's Theme
DR12      -0.50 dB   -15.42 dB      4:34 06-Le Jardin
DR12      -4.86 dB   -21.41 dB      2:27 07-Cinema Scenes: I. Doe Eyes
DR11      -0.50 dB   -14.50 dB      2:42 08-Cinema Scenes: II. Moving Pictures
DR13      -0.50 dB   -16.24 dB      2:06 09-Cinema Scenes: III. Silence
DR10      -0.50 dB   -12.99 dB      4:10 10-Cinema Scenes: IV. Exciting Moment
DR10      -0.50 dB   -13.05 dB      5:30 11-Inspired Tale
DR12      -0.50 dB   -16.54 dB      7:39 12-Ricochet
--------------------------------------------------------------------------------
Number of tracks:  12
Official DR value: DR11
Samplerate:        44100 Hz
Channels:          2
Bits per sample:   24
Bitrate:           1338 kbps
Codec:             FLAC
================================================================================

 

Скачивание доступно после регистрации!!
Приватный:
Нет (DHT включён)
Размер:
580.44 Мб (608,636,171 байт) » файлов: 17
Участники:
7 раздают, 1 качают (8 участников всего)
Внешние участники:
--- [ Обновить ]
11:23
44
RSS
Нет комментариев. Ваш будет первым!