Поиск

2018 Mike McGinnis - Singular Awakening {2018 Mike McGinnis} [24-96]

2018 Mike McGinnis - Singular Awakening {2018 Mike McGinnis} [24-96]
Стили:
Состав:
  • Mike McGinnis - clarinet & soprano sax
  • Art Lande - piano
  • Steve Swallow - bass guitar

Формат записи/Источник записи: [TR24][OF]
Наличие водяных знаков: Нет
Год издания/переиздания диска: 2018
Издатель (лейбл): 2018 Mike McGinnis
Продолжительность: 49:51
Контейнер: FLAC (*.flac)
Тип рипа: tracks
Разрядность: 24/96
Формат: PCM
Количество каналов: 2.0
Наличие сканов в содержимом раздачи: Только обложка альбома
Источник: hdtracks.com

Треклист:
01. Here Comes Everybody (5:05)
02. Shining Lights (5:23)
03. Insist On Something Sometimes (3:32)
04. A First Memory (4:12)
05. Mini's Can-Do Club (5:10)
06. PolterGinnis (4:03)
07. O'Flaherty Decides To Play Jazz (3:54)
08. Beau Nivea (3:17)
09. Shockinawe (1:56)
10. Slow Dance In A Whisper (3:58)
11. For Elise (3:49)
12. Bite Your Grandmother (5:33)

 
Лог проверки качества
foobar2000 1.3.9 / Dynamic Range Meter 1.1.1
log date: 2018-05-13 22:26:31
--------------------------------------------------------------------------------
Analyzed: Mike McGinnis / Singular Awakening
--------------------------------------------------------------------------------
DR         Peak         RMS     Duration Track
--------------------------------------------------------------------------------
DR10      -0.20 dB   -13.35 dB      5:05 01-Here Comes Everybody
DR10      -0.20 dB   -12.85 dB      5:23 02-Shining Lights
DR11      -0.20 dB   -13.90 dB      3:32 03-Insist On Something Sometimes
DR11      -4.15 dB   -19.29 dB      4:12 04-A First Memory
DR11      -1.41 dB   -15.29 dB      5:10 05-Mini's Can-Do Club
DR16      -0.20 dB   -24.43 dB      4:03 06-PolterGinnis
DR10      -0.20 dB   -13.30 dB      3:54 07-O'Flaherty Decides To Play Jazz
DR12      -0.20 dB   -15.45 dB      3:17 08-Beau Nivea
DR10      -0.20 dB   -12.57 dB      1:56 09-Shockinawe
DR13      -1.84 dB   -20.10 dB      3:58 10-Slow Dance In A Whisper
DR10      -0.20 dB   -15.31 dB      3:49 11-For Elise
DR10      -0.20 dB   -11.69 dB      5:33 12-Bite Your Grandmother
--------------------------------------------------------------------------------
Number of tracks:  12
Official DR value: DR11
Samplerate:        96000 Hz
Channels:          2
Bits per sample:   24
Bitrate:           2510 kbps
Codec:             FLAC
================================================================================

 

Приватный:
Нет (DHT включён)
Размер:
895.43 Мб (938,930,269 байт) » файлов: 15
Участники:
3 раздают, 0 качают (3 участников всего)
Внешние участники:
--- [ Обновить ]
18:58
27
RSS
Нет комментариев. Ваш будет первым!