Поиск

2018 Les Baxter and his Orchestra - The Exotic Worlds Of...Les Baxter! Vol. 2 {RevOla} [24-44,1]

2018 Les Baxter and his Orchestra - The Exotic Worlds Of...Les Baxter! Vol. 2 {RevOla} [24-44,1]
Носитель:
WEB
Формат:
PCM
Тип рипа:
tracks
Контейнер:
FLAC (*.flac)
Количество каналов:
2.0
Разрядность/ЧД:
24/44,1
Битрейт аудио:
lossless
Формат записи/Источник записи:
[TR24][OF]
Время звучания:
00:57:11
Наличие сканов:
только обложка
Наличие водяных знаков:
нет
Релизёр (источник):
M0p94ok
Треклист:

01. Simba (Remastered)  02:41
02. High Priest of the Aztecs (Pyramid of the Sun) (Remastered)  05:38
03. Harem Silks From Bombay (Remastered)  02:24
04. Papagayo (Remastered)  02:55
05. Jungle River Boat (Remastered)  03:05
06. Temptation (Remastered)  02:22
07. Pantan (Remastered)  02:27
08. Lost City (Remastered)  03:02
09. Pool of Love (Remastered)  02:05
10. Busy Port (Remastered)  03:03
11. Spice Islands Sea Birds (Remastered)  01:47
12. Go Chango (Remastered)  03:14
13. Nightingale (Remastered)  01:47
14. Love Dance (Remastered)  02:15
15. Safari (Remastered)  02:33
16. Sunken City (Remastered)  02:56
17. Tehran (Remastered)  02:21
18. Blue Jungle (Remastered)  03:14
19. The Left Arm of Buddha (Remastered)  01:54
20. Procession of the Princes (Remastered)  05:28

Лог проверки качества
foobar2000 1.3.16 / Dynamic Range Meter 1.1.1
log date: 2019-01-08 04:35:42

--------------------------------------------------------------------------------
Analyzed: Les Baxter / The Exotic Worlds Of...Les Baxter! Vol. 2 (Remastered)
--------------------------------------------------------------------------------

DR         Peak         RMS     Duration Track
--------------------------------------------------------------------------------
DR13      -5.17 dB   -22.76 dB      2:41 01-Simba (Remastered)
DR13      -3.74 dB   -20.74 dB      5:38 02-High Priest of the Aztecs (Pyramid of the Sun) (Remastered)
DR15      -3.28 dB   -22.61 dB      2:25 03-Harem Silks From Bombay (Remastered)
DR11      -3.53 dB   -18.73 dB      2:55 04-Papagayo (Remastered)
DR11      -5.47 dB   -21.82 dB      3:05 05-Jungle River Boat (Remastered)
DR11      -7.85 dB   -22.54 dB      2:23 06-Temptation (Remastered)
DR11      -5.40 dB   -20.37 dB      2:28 07-Pantan (Remastered)
DR14      -3.83 dB   -20.29 dB      3:02 08-Lost City (Remastered)
DR12      -5.59 dB   -19.85 dB      2:05 09-Pool of Love (Remastered)
DR13      -5.05 dB   -20.07 dB      3:04 10-Busy Port (Remastered)
DR13      -4.70 dB   -22.26 dB      1:47 11-Spice Islands Sea Birds (Remastered)
DR12      -3.63 dB   -18.81 dB      3:15 12-Go Chango (Remastered)
DR11      -6.04 dB   -23.00 dB      1:48 13-Nightingale (Remastered)
DR11      -4.72 dB   -19.72 dB      2:16 14-Love Dance (Remastered)
DR13      -4.33 dB   -20.07 dB      2:34 15-Safari (Remastered)
DR11      -4.40 dB   -19.91 dB      2:57 16-Sunken City (Remastered)
DR12      -3.75 dB   -21.15 dB      2:22 17-Tehran (Remastered)
DR13      -3.11 dB   -19.57 dB      3:15 18-Blue Jungle (Remastered)
DR12      -4.71 dB   -21.81 dB      1:55 19-The Left Arm of Buddha (Remastered)
DR12      -3.63 dB   -19.20 dB      5:28 20-Procession of the Princes (Remastered)
--------------------------------------------------------------------------------

Number of tracks:  20
Official DR value: DR12

Samplerate:        44100 Hz
Channels:          2
Bits per sample:   24
Bitrate:           1320 kbps
Codec:             FLAC
================================================================================
Приватный:
Нет (DHT включён)
Размер:
536.96 Мб (563,040,023 байт) » файлов: 22
Участники:
1 раздают, 0 качают (1 участников всего)
Внешние участники:
--- [ Обновить ]
No seeders - write a personal message to user M0p94ok. Нет сидеров - пишите личное сообщение пользователю M0p94ok.
13:24
11
Нет комментариев. Ваш будет первым!