Вы используете незарегистрированную версию компонента "Вкладки"!

Поиск

2018 Les Baxter and his Orchestra - The Exotic Worlds Of...Les Baxter! Vol. 1 {RevOla} [24-44,1]

2018 Les Baxter and his Orchestra - The Exotic Worlds Of...Les Baxter! Vol. 1 {RevOla} [24-44,1]
Издатель (лейбл):
Носитель:
WEB
Формат:
PCM
Тип рипа:
tracks+.cue
Контейнер:
FLAC (*.flac)
Количество каналов:
2.0
Разрядность/ЧД:
24/44,1
Битрейт аудио:
lossless
Время звучания:
01:05:47
Наличие сканов:
web
Релизёр (источник):
M0p94ok
Лог проверки качества
foobar2000 1.3.16 / Dynamic Range Meter 1.1.1
log date: 2019-01-08 04:35:25

--------------------------------------------------------------------------------
Analyzed: Les Baxter / The Exotic Worlds Of...Les Baxter! Vol. 1 (Remastered)
--------------------------------------------------------------------------------

DR         Peak         RMS     Duration Track
--------------------------------------------------------------------------------
DR12      -3.07 dB   -18.34 dB      3:18 01-Quiet Village (Remastered)
DR14      -4.87 dB   -21.72 dB      3:27 02-Jungalero (Remastered)
DR15      -3.90 dB   -23.83 dB      4:21 03-Temple Of Gold (Remastered)
DR14      -4.15 dB   -24.80 dB      2:51 04-Hong Kong Cable Car (Remastered)
DR11      -4.10 dB   -20.74 dB      3:39 05-Oasis Of Dakhla (Remastered)
DR11      -5.46 dB   -20.20 dB      2:41 06-Taboo (Remastered)
DR11      -4.61 dB   -19.53 dB      2:52 07-Amazon Falls (Remastered)
DR12      -5.75 dB   -20.56 dB      2:42 08-Jungle Flower (Remastered)
DR12      -6.77 dB   -22.72 dB      3:17 09-The Ancient Galleon (Remastered)
DR12      -4.31 dB   -21.81 dB      3:21 10-Zambezi (Remastered)
DR12      -8.26 dB   -22.55 dB      2:31 11-Tahiti A Summer Night At Sea (Remastered)
DR12      -4.37 dB   -18.74 dB      2:42 12-Congo Train (Remastered)
DR12      -4.91 dB   -20.68 dB      3:41 13-Acapulco (Remastered)
DR14      -2.52 dB   -19.64 dB      3:11 14-Stone God (Remastered)
DR12      -4.90 dB   -19.60 dB      3:03 15-Voodoo Dreams (Remastered)
DR15      -2.34 dB   -23.01 dB      4:10 16-Mozambique (Remastered)
DR13      -2.65 dB   -22.10 dB      4:18 17-City Of Veils (Remastered)
DR12      -6.38 dB   -21.43 dB      3:10 18-Bacoa (Remastered)
DR12      -5.15 dB   -20.37 dB      2:10 19-Mombassa After Midnight (Remastered)
DR12      -4.08 dB   -20.70 dB      4:31 20-Bom Bom Mood Tatooed (Remastered)
--------------------------------------------------------------------------------

Number of tracks:  20
Official DR value: DR13

Samplerate:        44100 Hz
Channels:          2
Bits per sample:   24
Bitrate:           1268 kbps
Codec:             FLAC
================================================================================
Any questions - support@pro-jazz.com. Есть вопросы - support@pro-jazz.com
22:53
241
Нет комментариев. Ваш будет первым!